<?xml version="1.0" standalone="no"?>
<!DOCTYPE svg PUBLIC "-//W3C//DTD SVG 1.1//EN" "http://www.w3.org/Graphics/SVG/1.1/DTD/svg11.dtd" >
<svg xmlns="http://www.w3.org/2000/svg" xmlns:xlink="http://www.w3.org/1999/xlink" version="1.1">
<metadata></metadata>
<defs>
<font id="aller_displayregular" horiz-adv-x="1185" >
<font-face units-per-em="2048" ascent="1638" descent="-410" />
<missing-glyph horiz-adv-x="450" />
<glyph horiz-adv-x="0" />
<glyph unicode="&#xd;" horiz-adv-x="1024" />
<glyph unicode=" "  horiz-adv-x="450" />
<glyph unicode="&#x09;" horiz-adv-x="450" />
<glyph unicode="&#xa0;" horiz-adv-x="450" />
<glyph unicode="!" horiz-adv-x="618" d="M123 176q0 39 4 81t10 89q47 8 89 12t83 4t83 -4t89 -12q6 -47 10.5 -89t4.5 -81t-4.5 -82t-10.5 -90q-47 -8 -89 -12t-83 -4t-83 4t-89 12q-6 47 -10 90t-4 82zM127 1473q49 8 95 10t87 2t86 -2t97 -10l-19 -955q-51 -10 -90 -14t-74 -4q-63 0 -164 18z" />
<glyph unicode="&#x22;" horiz-adv-x="933" d="M82 877v591q35 8 80 12.5t80 4.5t80 -4t79 -13v-591q-35 -8 -80 -12.5t-79 -4.5q-35 0 -80 4t-80 13zM533 877v591q35 8 80 12.5t80 4.5t80 -4t79 -13v-591q-35 -8 -80 -12.5t-79 -4.5q-35 0 -80 4t-80 13z" />
<glyph unicode="#" horiz-adv-x="1431" d="M92 524q0 31 3 60.5t7 62.5h236l18 225h-215q-12 63 -12 121q0 31 3 59.5t9 61.5h236l24 295q41 8 73 10t67 2q33 0 65.5 -2t69.5 -10l-25 -295h203l25 295q41 8 72.5 10t64.5 2t65.5 -2t71.5 -10l-25 -295h199q6 -33 9 -60.5t3 -56.5q0 -61 -12 -125h-219l-18 -225h200 q4 -33 7 -61.5t3 -57.5t-3 -59.5t-7 -62.5h-221l-27 -343q-39 -8 -71.5 -10t-65.5 -2q-35 0 -67.5 2t-69.5 10l27 343h-203l-27 -343q-41 -8 -72.5 -10t-66.5 -2q-31 0 -63.5 2t-73.5 10l28 343h-215q-4 33 -7 61.5t-3 56.5zM612 647h203l19 225h-203z" />
<glyph unicode="$" horiz-adv-x="1198" d="M82 63q8 74 27.5 150t48.5 162q96 -41 174 -60.5t149 -19.5q102 0 157.5 33.5t55.5 105.5q0 63 -48 97t-118 63l-108 45q-61 27 -116.5 59.5t-95.5 78.5t-63.5 108.5t-23.5 148.5q0 180 97 288t269 138v185q33 10 66 13t55 3q23 0 56.5 -3t64.5 -13v-179 q72 -8 144.5 -26.5t154.5 -46.5q-14 -137 -84 -291q-70 31 -137.5 51.5t-173.5 20.5q-27 0 -52.5 -3.5t-47 -14.5t-35 -30.5t-13.5 -52.5q0 -59 42 -89t91 -48l115 -43q70 -27 131.5 -59.5t108.5 -82t74.5 -121t27.5 -175.5q0 -166 -89 -285t-257 -166v-242 q-31 -10 -64.5 -13t-56.5 -3t-55.5 3t-65.5 13v215q-59 0 -109 5.5t-98.5 15.5t-95.5 26.5t-102 38.5z" />
<glyph unicode="%" horiz-adv-x="2080" d="M68 1034q0 84 23.5 163t71.5 140.5t121.5 98.5t176.5 37q100 0 174 -37t123 -98.5t72.5 -140.5t23.5 -163t-23.5 -162.5t-72.5 -140t-123 -98.5t-174 -37q-102 0 -176 37t-122 98.5t-71.5 140t-23.5 162.5zM348 1034q0 -92 26.5 -149.5t86.5 -57.5q59 0 85.5 57.5 t26.5 149.5q0 94 -26.5 149.5t-85.5 55.5t-86 -55.5t-27 -149.5zM461 4l846 1448q35 6 74.5 9t76.5 3q33 0 70 -1t92 -11l-846 -1448q-35 -6 -75 -9t-76 -3q-33 0 -70 1t-92 11zM1227 416q0 84 23.5 163t71.5 140.5t121.5 98.5t176.5 37q100 0 174 -37t123 -98.5 t72.5 -140.5t23.5 -163t-23.5 -162.5t-72.5 -140t-123 -98.5t-174 -37q-102 0 -176 37t-122 98.5t-71.5 140t-23.5 162.5zM1507 416q0 -92 26.5 -149.5t86.5 -57.5q59 0 85.5 57.5t26.5 149.5q0 94 -26.5 149.5t-85.5 55.5t-86 -55.5t-27 -149.5z" />
<glyph unicode="&#x26;" horiz-adv-x="1482" d="M78 432q0 66 16.5 125t44 108.5t63.5 88.5t74 65q-57 47 -99 120t-42 171q0 96 36 169t99.5 121t147.5 72.5t180 24.5q61 0 139 -9t166 -42q4 -76 -17.5 -141.5t-62.5 -124.5q-78 29 -127 35t-84 6q-74 0 -106.5 -37t-32.5 -84q0 -53 32 -90t105 -37h338l217 274 q33 10 101 4v-278h190q10 -39 12 -71t2 -62q0 -35 -2 -67t-12 -75h-190v-200q0 -129 -44 -226.5t-126 -163t-199 -98.5t-260 -33q-106 0 -206.5 25t-179.5 79t-126 141t-47 210zM449 487q0 -96 54 -153.5t165 -57.5q82 0 133 25t80.5 65t41 91t11.5 106v135h-291 q-90 0 -142 -59t-52 -152z" />
<glyph unicode="'" horiz-adv-x="483" d="M82 877v591q35 8 80 12.5t80 4.5t80 -4t79 -13v-591q-35 -8 -80 -12.5t-79 -4.5q-35 0 -80 4t-80 13z" />
<glyph unicode="(" horiz-adv-x="751" d="M102 625q0 164 18.5 306t51.5 262t75 218t89 172q29 10 76 14.5t88 4.5q39 0 92 -6.5t98 -16.5q-25 -43 -64.5 -128t-78.5 -208t-66.5 -279.5t-27.5 -338.5t27.5 -339t66.5 -280t79 -208t64 -128q-45 -10 -98 -16t-92 -6q-41 0 -88 4t-76 14q-47 74 -89 172.5t-75 218 t-51.5 262t-18.5 306.5z" />
<glyph unicode=")" horiz-adv-x="751" d="M61 -330q25 43 65 128t79 208t66.5 279.5t27.5 339.5q0 182 -27.5 338.5t-66.5 279.5t-79 208t-65 128q45 10 98.5 16.5t92.5 6.5q41 0 88 -4.5t76 -14.5q47 -74 89 -172t74.5 -218t51 -262t18.5 -306t-18.5 -306.5t-51 -262t-74.5 -218t-89 -172.5q-29 -10 -76 -14 t-88 -4q-39 0 -92.5 6t-98.5 16z" />
<glyph unicode="*" horiz-adv-x="950" d="M33 1069q4 51 22.5 99.5t38.5 88.5l258 -57l23 268q29 4 52.5 7.5t41.5 3.5q23 0 48.5 -3t53.5 -8l25 -268l256 60q29 -47 43 -96.5t23 -90.5l-250 -106l147 -234q-35 -35 -76 -64.5t-88 -52.5l-176 201l-176 -203q-45 23 -86 52.5t-76 64.5l144 234zM330 977 q37 -23 72.5 -48.5t70.5 -56.5q74 63 143 105q-20 45 -33.5 89t-23.5 85q-27 -4 -48.5 -4h-41.5q-35 0 -78 6q-10 -47 -25.5 -91t-35.5 -85z" />
<glyph unicode="+" d="M131 723q0 35 4 70.5t10 76.5h301v326q39 8 74 12t72 4q35 0 70.5 -4t76.5 -12v-326h299q8 -41 12.5 -75.5t4.5 -69.5t-4 -71t-13 -76h-299v-326q-41 -8 -75.5 -12t-69.5 -4q-66 0 -148 16v326h-301q-6 41 -10 74.5t-4 70.5z" />
<glyph unicode="," horiz-adv-x="618" d="M49 -219l141 547q45 10 85 15t73 5t81 -5t101 -19l-155 -547q-49 -12 -88 -15.5t-70 -3.5q-33 0 -70.5 4.5t-97.5 18.5z" />
<glyph unicode="-" horiz-adv-x="755" d="M86 559q0 70 18 156h549q10 -43 13.5 -81t3.5 -73t-3 -73.5t-14 -81.5h-549q-18 85 -18 153z" />
<glyph unicode="." horiz-adv-x="606" d="M113 178q0 41 4 84t12 90q47 6 90 10.5t84 4.5t84 -4.5t90 -10.5q8 -47 12.5 -90t4.5 -84t-4.5 -84t-12.5 -90q-47 -8 -90 -12t-84 -4t-84 4t-90 12q-8 47 -12 90t-4 84z" />
<glyph unicode="/" horiz-adv-x="851" d="M10 4l496 1464q43 8 82 12.5t80 4.5q35 0 77.5 -3t96.5 -14l-496 -1464q-43 -8 -82 -12t-80 -4q-35 0 -78 3t-96 13z" />
<glyph unicode="0" horiz-adv-x="1224" d="M78 662q0 147 32.5 274t98 220t167 146.5t240.5 53.5q137 0 237.5 -53.5t166 -146.5t96.5 -220t31 -274t-33 -272.5t-98.5 -217.5t-168 -144.5t-239.5 -52.5t-237.5 52.5t-165 144.5t-96 217t-31.5 273zM440 662q0 -190 46 -286.5t126 -96.5q78 0 123 96t45 287 q0 193 -45 289t-123 96q-82 0 -127 -96.5t-45 -288.5z" />
<glyph unicode="1" horiz-adv-x="1097" d="M78 1083l600 256h88v-1032h262q18 -80 19 -151q0 -76 -19 -156h-876q-18 80 -19 156q0 72 19 151h266v582l-221 -86q-18 27 -37 61.5t-35 71.5t-28.5 75t-18.5 72z" />
<glyph unicode="2" horiz-adv-x="1081" d="M33 59l364 480q94 127 140.5 214t46.5 156q0 63 -46 101.5t-128 38.5q-78 0 -145.5 -28t-121.5 -58q-33 72 -57.5 145.5t-28.5 151.5q70 39 170.5 67.5t227.5 28.5q104 0 193 -24.5t154.5 -75t102.5 -126t37 -180.5q0 -74 -18.5 -139.5t-47 -124.5t-64.5 -112.5 t-71 -102.5l-116 -164h358q18 -86 18 -149q0 -72 -18 -158h-926z" />
<glyph unicode="3" horiz-adv-x="1103" d="M20 -62q4 76 30 154t60 139q78 -27 150 -44t151 -17q121 0 192 49t71 149q0 43 -18.5 76t-49.5 54.5t-70 32.5t-82 11q-33 0 -68.5 -3t-82.5 -15l-45 67l252 437h-412q-18 80 -18 155q0 74 18 154h866l37 -57l-291 -502q147 -27 229.5 -128.5t82.5 -260.5 q0 -127 -46 -225.5t-127 -165t-190.5 -100.5t-234.5 -34q-57 0 -106.5 3.5t-97.5 12.5t-96 22.5t-104 35.5z" />
<glyph unicode="4" horiz-adv-x="1284" d="M55 190l551 1180q80 -10 157 -36t148 -81l-372 -821h202v229q45 10 87 13.5t83 3.5q39 0 81 -3.5t85 -13.5v-229h109q18 -80 18 -152t-18 -151h-109v-242q-43 -10 -85 -13t-81 -3q-41 0 -83 3t-87 13v242h-651z" />
<glyph unicode="5" horiz-adv-x="1103" d="M27 -66q2 39 11 81t21.5 82t25.5 75.5t28 64.5q80 -29 145.5 -44t126.5 -15q74 0 125 16.5t82 42t44 59t13 70.5q0 78 -55 125t-176 47q-49 0 -105.5 -11t-117.5 -40l-54 35l31 815h748q18 -86 18 -150q0 -72 -18 -157h-433l-4 -213q18 4 35 4h39q100 0 184 -29 t143.5 -84t92.5 -137t33 -188q0 -127 -43 -223.5t-124 -162t-196 -98.5t-256 -33q-27 0 -66.5 4.5t-89 11.5t-103.5 20.5t-105 31.5z" />
<glyph unicode="6" horiz-adv-x="1220" d="M102 571q0 172 47 329t146.5 282t254 207t367.5 100q16 -16 30.5 -58t14.5 -102q0 -49 -6 -88t-16 -63q-80 -6 -151.5 -30t-131 -62.5t-103.5 -90t-67 -114.5l6 -4q23 29 83.5 53t146.5 24q88 0 164.5 -26.5t135 -83t92.5 -144.5t34 -213t-41 -220t-111.5 -159.5 t-165 -97.5t-200.5 -33q-258 0 -393.5 147.5t-135.5 446.5zM457 481q0 -109 47 -164t120 -55q74 0 125.5 51.5t51.5 157.5q0 111 -48 161t-120 50q-78 0 -127 -51t-49 -150z" />
<glyph unicode="7" horiz-adv-x="1126" d="M51 1187q0 63 19 150h995l31 -55l-584 -1432q-86 20 -158.5 47t-154.5 82l430 1049h-559q-10 43 -14.5 84t-4.5 75z" />
<glyph unicode="8" horiz-adv-x="1189" d="M76 408q0 135 63.5 227t155.5 145q-80 53 -120 129t-40 168q0 88 36 161t97.5 125t145.5 81t180 29q98 0 182 -29t145.5 -81t96.5 -125t35 -161q0 -92 -42 -167.5t-120 -129.5q94 -51 158.5 -144t64.5 -228q0 -115 -44 -196t-118 -133t-167 -77t-191 -25t-191.5 25 t-166 77t-116.5 133t-44 196zM418 422q0 -72 45 -119t131 -47q90 0 134 47t44 119q0 78 -51 131t-129 80q-78 -27 -126 -80t-48 -131zM459 1079q0 -63 37.5 -107t97.5 -67q63 23 100 66t37 108q0 51 -34 89t-101 38q-68 0 -102.5 -38t-34.5 -89z" />
<glyph unicode="9" horiz-adv-x="1220" d="M74 848q0 125 41 220t111.5 159.5t165 97.5t200.5 33q258 0 393 -147.5t135 -446.5q0 -172 -47 -330t-146 -282t-254 -206t-368 -100q-16 16 -30.5 58t-14.5 102q0 49 6.5 88t16.5 63q80 6 151.5 30t131 61.5t103.5 90t66 115.5l-6 4q-23 -29 -83 -53t-146 -24 q-88 0 -165 26.5t-135.5 83t-92 144.5t-33.5 213zM422 864q0 -111 48 -161t120 -50q78 0 127 51t49 150q0 109 -47 164t-121 55t-125 -51.5t-51 -157.5z" />
<glyph unicode=":" horiz-adv-x="606" d="M113 178q0 41 4 84t12 90q47 6 90 10.5t84 4.5t84 -4.5t90 -10.5q8 -47 12.5 -90t4.5 -84t-4.5 -84t-12.5 -90q-47 -8 -90 -12t-84 -4t-84 4t-90 12q-8 47 -12 90t-4 84zM113 870q0 41 4 84t12 90q47 6 90 10.5t84 4.5t84 -4.5t90 -10.5q8 -47 12.5 -90t4.5 -84t-4.5 -84 t-12.5 -90q-47 -8 -90 -12t-84 -4t-84 4t-90 12q-8 47 -12 90t-4 84z" />
<glyph unicode=";" horiz-adv-x="655" d="M37 -219l141 547q45 10 85 15t73 5t81 -5t101 -19l-155 -547q-49 -12 -88 -15.5t-70 -3.5q-33 0 -70.5 4.5t-97.5 18.5zM162 870q0 41 4 84t12 90q47 6 90 10.5t84 4.5t84 -4.5t90 -10.5q8 -47 12.5 -90t4.5 -84t-4.5 -84t-12.5 -90q-47 -8 -90 -12t-84 -4t-84 4t-90 12 q-8 47 -12 90t-4 84z" />
<glyph unicode="&#x3c;" d="M150 729q0 76 20 150l850 346q8 -35 12 -87.5t4 -80.5q0 -35 -1 -70t-11 -76l-532 -188l532 -178q10 -41 11 -78t1 -72q0 -14 -1 -36.5t-3 -47t-5 -48t-7 -42.5l-850 346q-20 84 -20 162z" />
<glyph unicode="=" d="M131 502q0 35 4 70.5t10 76.5h893q8 -41 12.5 -75.5t4.5 -69.5t-4 -71t-13 -76h-893q-6 41 -10 74.5t-4 70.5zM131 942q0 35 4 70.5t10 76.5h893q8 -41 12.5 -75.5t4.5 -69.5t-4 -71t-13 -76h-893q-6 41 -10 74.5t-4 70.5z" />
<glyph unicode="&#x3e;" d="M150 395q0 35 1 72t11 78l532 178l-532 188q-10 41 -11 76t-1 70q0 29 4 81t12 87l850 -346q20 -74 20 -150q0 -78 -20 -162l-850 -346q-4 18 -7 42t-5 48.5t-3 47t-1 36.5z" />
<glyph unicode="?" horiz-adv-x="980" d="M68 1399q57 20 105 34.5t92 22.5t87 12.5t90 4.5q248 0 373 -113t125 -311q0 -90 -31.5 -158t-78 -115t-97.5 -77.5t-92 -49.5v-186q-45 -6 -88 -10t-78 -4q-37 0 -79 4t-83 10v385q53 6 104.5 19.5t91.5 36t64.5 56t24.5 80.5q0 70 -51 106t-137 36q-39 0 -70 -3 t-60.5 -10.5t-62.5 -18t-72 -24.5q-12 27 -25.5 62t-23.5 71.5t-18 72.5t-10 67zM279 178q0 41 4 84t12 90q47 6 90 10.5t84 4.5t84 -4.5t90 -10.5q8 -47 12 -90t4 -84t-4 -84t-12 -90q-47 -8 -90 -12t-84 -4t-84 4t-90 12q-8 47 -12 90t-4 84z" />
<glyph unicode="@" horiz-adv-x="2011" d="M66 453q0 119 28.5 241.5t88 238.5t148.5 218t210 178t274.5 120t341.5 44q166 0 310.5 -44t250 -132t167 -219t61.5 -305q0 -127 -42 -251t-120 -221.5t-187.5 -158t-244.5 -60.5q-145 0 -224 72q-57 -29 -120.5 -50.5t-161.5 -21.5q-66 0 -125 20.5t-104.5 62.5 t-71 107.5t-25.5 156.5q0 137 46 252.5t126 199.5t185.5 130t224.5 46q88 0 179 -15t177 -46l-127 -670q18 -6 51 -6q70 0 124.5 42t91 107.5t56 145.5t19.5 158q0 217 -138 339.5t-402 122.5q-184 0 -331 -66.5t-247 -178t-153.5 -255t-53.5 -296.5q0 -135 42 -234.5 t113.5 -164t168 -95.5t205.5 -31q102 0 192 14.5t170 45.5q51 -117 78 -217q-82 -41 -212 -62.5t-261 -21.5q-160 0 -301.5 47t-247 141t-167.5 236.5t-62 335.5zM821 494q0 -78 33 -113t88 -35q31 0 57.5 3t55.5 13l78 459q-16 2 -28.5 3t-29.5 1q-59 0 -106 -27.5 t-80 -73.5t-50.5 -106.5t-17.5 -123.5z" />
<glyph unicode="A" horiz-adv-x="1314" d="M10 8l459 1462q53 6 99 10.5t94 4.5q39 0 85 -4t105 -11l453 -1464q-117 -18 -205 -18q-41 0 -82 4t-88 12l-78 285q-57 -16 -109.5 -24.5t-103.5 -8.5q-47 0 -96 7t-103 22l-75 -281q-47 -8 -86 -12t-76 -4t-85 5t-108 15zM514 559q35 -10 65.5 -16t63.5 -6q35 0 68.5 5 t70.5 15l-131 528z" />
<glyph unicode="B" horiz-adv-x="1222" d="M123 4v1464q78 12 170 20.5t215 8.5q117 0 218 -19.5t177 -65.5t120 -123t44 -193q0 -96 -43 -175t-109 -122q47 -18 91.5 -48t78 -74t54 -105.5t20.5 -141.5q0 -135 -49 -223t-135 -139.5t-205 -72t-258 -20.5q-111 0 -199 8.5t-190 20.5zM477 274q14 -2 36 -3t56 -1 q39 0 79 8.5t73 28t52.5 53t19.5 84.5q0 98 -64.5 136t-167.5 38h-84v-344zM477 909h58q88 0 137 36t49 124q0 43 -17.5 71.5t-44 45t-59.5 22.5t-63 6h-30t-30 -2v-303z" />
<glyph unicode="C" horiz-adv-x="1247" d="M84 733q0 164 47 304.5t136 242.5t220 159.5t297 57.5q98 0 186.5 -14.5t196.5 -57.5q-4 -84 -30.5 -162.5t-55.5 -138.5q-41 14 -74.5 24.5t-64.5 16.5t-61.5 9.5t-65.5 3.5q-166 0 -257 -112t-91 -333q0 -434 364 -434q66 0 124.5 12.5t142.5 40.5q68 -147 90 -303 q-59 -23 -110.5 -37t-98.5 -21t-93 -10.5t-95 -3.5q-174 0 -306.5 56.5t-221.5 157t-134 239.5t-45 303z" />
<glyph unicode="D" horiz-adv-x="1402" d="M123 6v1462q31 4 78 9.5t102 9.5t113.5 7t113.5 3q387 0 588 -193.5t201 -576.5q0 -389 -205 -570.5t-606 -181.5q-102 0 -197.5 9.5t-187.5 21.5zM485 297q14 -2 33 -2h39q80 0 150.5 19.5t122 68.5t81 133t29.5 215q0 129 -30.5 215t-81 136.5t-118 72t-141.5 21.5 q-41 0 -59 -1t-25 -1v-877z" />
<glyph unicode="E" horiz-adv-x="1079" d="M123 0v1473h864q8 -45 12.5 -84t4.5 -74q0 -68 -17 -162h-502v-225h396q18 -90 18 -160q0 -72 -18 -160h-396v-291h514q18 -86 19 -155q0 -76 -19 -162h-876z" />
<glyph unicode="F" horiz-adv-x="1044" d="M123 6v1467h864q8 -45 12.5 -84t4.5 -74q0 -68 -17 -162h-502v-250h396q18 -92 18 -160q0 -70 -18 -161h-396v-576q-109 -18 -180 -18q-76 0 -182 18z" />
<glyph unicode="G" horiz-adv-x="1349" d="M84 733q0 164 47 304.5t136 242.5t220 159.5t297 57.5q98 0 187.5 -14.5t195.5 -59.5q-4 -84 -30.5 -163.5t-55.5 -135.5q-41 14 -74.5 24.5t-64.5 16.5t-61.5 9.5t-65.5 3.5q-166 0 -256 -112t-90 -333q0 -219 88 -326.5t262 -107.5q39 0 70 6v492q55 8 98 12t80 4 q35 0 84 -4t96 -12v-746q-121 -45 -238.5 -59.5t-201.5 -14.5q-180 0 -315.5 56.5t-226.5 157t-136 239.5t-45 303z" />
<glyph unicode="H" horiz-adv-x="1333" d="M123 6v1462q55 8 100 12.5t80 4.5q37 0 83 -4t99 -13v-542h363v542q55 8 99 12.5t81 4.5t83 -4t99 -13v-1462q-108 -18 -180 -18q-76 0 -182 18v598h-363v-598q-109 -18 -180 -18q-76 0 -182 18z" />
<glyph unicode="I" horiz-adv-x="608" d="M123 6v1462q55 8 100 12.5t80 4.5q37 0 83 -4t99 -13v-1462q-108 -18 -180 -18q-76 0 -182 18z" />
<glyph unicode="J" horiz-adv-x="841" d="M31 76q0 118 41 235q18 -4 55 -10t78 -6q25 0 53.5 3t52 18.5t40 46t16.5 86.5v704h-224q-18 86 -18 162q0 72 18 158h586v-1065q0 -117 -37 -200t-100.5 -134t-148.5 -75t-183 -24q-59 0 -118.5 9.5t-106.5 23.5q-2 16 -3 32.5t-1 35.5z" />
<glyph unicode="K" horiz-adv-x="1296" d="M123 6v1462q55 8 100 12.5t80 4.5q37 0 83 -4t99 -13v-1462q-109 -18 -180 -18q-76 0 -182 18zM514 743l346 725q61 10 106.5 13.5t92.5 3.5q23 0 51.5 -1t56 -4t53 -6.5t44.5 -5.5l-351 -706l383 -756q-35 -8 -93 -13t-105 -5q-59 0 -114.5 5t-94.5 13z" />
<glyph unicode="L" horiz-adv-x="1005" d="M123 0v1468q55 8 100 12.5t80 4.5q37 0 83 -4t99 -13v-1146h473q10 -51 13.5 -89t3.5 -69q0 -35 -3 -73t-14 -91h-835z" />
<glyph unicode="M" horiz-adv-x="1640" d="M106 6l60 1462q43 6 93 11.5t93 5.5q41 0 89 -5t89 -12l291 -761l301 761q41 6 83 11.5t83 5.5q43 0 88 -5t88 -12l70 -1462q-33 -6 -73 -12t-105 -6q-72 0 -170 18l-29 848l-225 -559q-37 -6 -74 -10t-67 -4q-31 0 -64 3t-68 11l-200 551l-23 -840q-86 -18 -164 -18 q-72 0 -166 18z" />
<glyph unicode="N" horiz-adv-x="1349" d="M123 6v1462q45 8 82 12.5t71 4.5q37 0 77 -5t69 -12l475 -802v802q53 8 96 12.5t78 4.5t74 -4t82 -13l-2 -1462q-20 -6 -59.5 -12t-84.5 -6q-51 0 -92 7t-59 11l-477 799v-799q-90 -18 -164 -18t-166 18z" />
<glyph unicode="O" horiz-adv-x="1456" d="M84 731q0 164 38 304.5t116.5 242.5t200.5 160.5t290 58.5t289 -58.5t199.5 -160.5t116.5 -242.5t38 -304.5t-38 -302t-116.5 -239.5t-199.5 -158t-289 -56.5t-290 56.5t-200.5 158t-116.5 239.5t-38 302zM465 731q0 -223 64.5 -332.5t199.5 -109.5q262 0 262 442 q0 446 -260 447q-266 0 -266 -447z" />
<glyph unicode="P" horiz-adv-x="1198" d="M123 6v1462q47 6 144.5 17.5t244.5 11.5q109 0 219.5 -20.5t199.5 -77t144 -158.5t55 -266q0 -145 -44 -241.5t-116.5 -154t-165.5 -82t-192 -24.5q-39 0 -78.5 3t-56.5 7v-477q-53 -10 -96 -14t-80 -4q-72 0 -178 18zM477 776q10 -4 35 -6t51 -2q88 0 143.5 51t55.5 156 q0 61 -17.5 103t-48 67.5t-71.5 36t-86 10.5h-28.5t-33.5 -2v-414z" />
<glyph unicode="Q" horiz-adv-x="1456" d="M84 731q0 164 38 304.5t116.5 242.5t200.5 160.5t290 58.5t289 -58.5t199.5 -160.5t116.5 -242.5t38 -304.5t-38 -302t-116.5 -239.5t-199.5 -158t-289 -56.5t-290 56.5t-200.5 158t-116.5 239.5t-38 302zM465 731q0 -223 64.5 -332.5t199.5 -109.5q262 0 262 442 q0 446 -260 447q-266 0 -266 -447zM649 -287.5q0 17.5 2 31.5q10 100 58 209l677 -111q-2 -78 -14 -153.5t-39 -151.5l-684 117v58.5z" />
<glyph unicode="R" horiz-adv-x="1261" d="M123 6v1462q100 10 185 19.5t179 9.5q113 0 225.5 -21.5t200.5 -74.5t143.5 -145.5t55.5 -233.5q0 -76 -17.5 -136.5t-45 -107.5t-61.5 -81.5t-66 -59.5l319 -631q-49 -8 -107.5 -12t-105.5 -4q-41 0 -95 4t-95 12l-291 670l18 10q25 12 54.5 41t55 69t43 89t17.5 102 q0 102 -57 149.5t-141 47.5q-20 0 -35 -2t-19 -4v-1172q-109 -18 -178 -18q-76 0 -182 18z" />
<glyph unicode="S" horiz-adv-x="1155" d="M59 59q8 72 29 153t49 165q188 -82 328 -82q104 0 162.5 31.5t58.5 109.5q0 33 -12 56.5t-32.5 40t-46.5 27.5l-52 22l-115 43q-74 27 -134.5 63.5t-103.5 86.5t-66.5 115.5t-23.5 153.5q0 109 37 193t103.5 142.5t161 88t210.5 29.5q104 0 201.5 -20.5t208.5 -59.5 q-8 -66 -29.5 -144.5t-54.5 -148.5q-53 23 -125 47.5t-178 24.5q-33 0 -62.5 -6t-53 -19.5t-38 -37t-14.5 -58.5q0 -59 39 -88t92 -49l98 -39q86 -35 155 -70.5t118 -86t75.5 -121t26.5 -170.5q0 -109 -38 -196t-111.5 -149.5t-181 -96.5t-246.5 -34q-127 0 -224.5 20.5 t-210.5 63.5z" />
<glyph unicode="T" horiz-adv-x="1142" d="M31 1315q0 68 18 158h1047q8 -45 12 -84t4 -74q0 -68 -16 -162h-342v-1147q-109 -18 -181 -18q-76 0 -182 18v1147h-342q-18 88 -18 162z" />
<glyph unicode="U" horiz-adv-x="1355" d="M115 631v837q59 8 102 11.5t82 3.5q35 0 77 -3t101 -12v-794q0 -102 8.5 -174t30 -117t60 -64.5t102.5 -19.5q63 0 103 19.5t61.5 64.5t29 116.5t7.5 174.5v794q61 8 103 11.5t77 3.5q37 0 80 -3t102 -12v-837q0 -152 -25.5 -272.5t-89 -205.5t-173 -130.5t-275.5 -45.5 t-275.5 45.5t-173 130.5t-89 205.5t-25.5 272.5z" />
<glyph unicode="V" horiz-adv-x="1335" d="M10 1468q35 6 92.5 11.5t110.5 5.5q43 0 94 -5t90 -12l275 -991l280 991q47 8 95.5 12.5t101.5 4.5q35 0 86 -5t90 -12l-471 -1464q-53 -8 -99 -12t-89 -4q-41 0 -84 4t-103 12z" />
<glyph unicode="W" horiz-adv-x="1835" d="M6 1466q57 10 110.5 14.5t94.5 4.5q39 0 81 -3t95 -14l170 -936q51 225 102.5 470t100.5 466q37 6 82 11.5t92 5.5q41 0 84 -5t74 -12l213 -946l170 946q53 10 90 13.5t75 3.5q41 0 86.5 -3t102.5 -14l-352 -1462q-31 -6 -79 -12t-106 -6q-57 0 -111.5 7t-72.5 11 l-195 848l-206 -848q-18 -4 -68.5 -11t-108.5 -7q-57 0 -102 6t-76 12z" />
<glyph unicode="X" horiz-adv-x="1320" d="M25 6l297 760l-242 702q53 10 103 13.5t104 3.5q35 0 90 -5t88 -12l194 -710l199 710q33 8 88 12.5t90 4.5q53 0 102.5 -3t102.5 -14l-240 -702l295 -760q-104 -18 -206 -18q-35 0 -90.5 5t-88.5 13l-252 731l-249 -731q-33 -8 -88.5 -13t-90.5 -5q-102 0 -206 18z" />
<glyph unicode="Y" horiz-adv-x="1273" d="M0 1468q35 6 94.5 11.5t112.5 5.5q43 0 95 -5t91 -12l252 -569l242 569q47 8 98 12.5t105 4.5q35 0 90 -5t94 -12l-457 -940v-522q-109 -18 -180 -18q-76 0 -182 18v522q-53 111 -111.5 231t-117 239.5t-116 239.5t-110.5 230z" />
<glyph unicode="Z" horiz-adv-x="1181" d="M41 55l565 1098h-502q-10 45 -13 84t-3 74t3 75.5t13 86.5h998l31 -60l-562 -1096h494q18 -85 18 -155q0 -76 -18 -162h-987z" />
<glyph unicode="[" horiz-adv-x="704" d="M102 -344v1933h523q10 -41 14 -74.5t4 -68.5q0 -63 -18 -150h-185v-1347h185q10 -43 14 -78t4 -70t-4 -68.5t-14 -76.5h-523z" />
<glyph unicode="\" horiz-adv-x="851" d="M10 1468q53 10 96.5 13.5t77.5 3.5q41 0 80 -4t82 -13l496 -1464q-53 -10 -96.5 -13t-77.5 -3q-41 0 -80 4t-82 12z" />
<glyph unicode="]" horiz-adv-x="704" d="M61 -199q0 35 4.5 70t14.5 78h184v1347h-184q-18 86 -19 150q0 35 4.5 68.5t14.5 74.5h522v-1933h-522q-10 43 -14.5 76.5t-4.5 68.5z" />
<glyph unicode="^" horiz-adv-x="1124" d="M82 748l332 720q27 6 72.5 11.5t78.5 5.5t79 -5t75 -12l323 -720q-86 -18 -161 -19q-51 0 -93.5 5t-76.5 14l-152 376l-145 -376q-35 -8 -77 -13.5t-93 -5.5q-76 0 -162 19z" />
<glyph unicode="_" horiz-adv-x="1024" d="M0 -131q0 23 4 52.5t14 74.5h990q10 -43 13 -74t3 -61q0 -23 -4 -50.5t-14 -76.5h-990q-10 43 -13 74.5t-3 60.5z" />
<glyph unicode="`" horiz-adv-x="983" d="M193 1452q37 6 87 9t103 3q109 0 188 -12l220 -252q-35 -8 -73 -10t-77 -2q-88 0 -149 12z" />
<glyph unicode="a" horiz-adv-x="1071" d="M61 346q0 100 43 166t111 104.5t149.5 54t159.5 15.5h125q-2 37 -20.5 61.5t-47 38t-63.5 18.5t-72 5q-49 0 -114.5 -11.5t-134.5 -35.5q-18 35 -31.5 63.5t-21 58t-10.5 61.5t-3 73q98 33 195.5 49t175.5 16q106 0 192 -25.5t146.5 -78.5t93.5 -136t33 -198v-600 q-78 -23 -188.5 -45.5t-233.5 -22.5q-106 0 -195.5 19.5t-153 62.5t-99.5 114t-36 173zM362 352q0 -41 18.5 -64.5t46.5 -35.5t59.5 -16.5t58.5 -4.5q18 0 53 4.5t51 8.5v225h-117q-72 0 -121 -30.5t-49 -86.5z" />
<glyph unicode="b" horiz-adv-x="1150" d="M115 2v1053q41 6 94 11t108.5 9t107.5 6t91 2q256 0 383 -72.5t127 -226.5q0 -78 -36 -132t-97 -93q86 -31 141.5 -88t55.5 -162q0 -188 -139.5 -261t-411.5 -73q-72 0 -187.5 5.5t-236.5 21.5zM457 227q6 0 32.5 -2t71.5 -2q86 0 123 29t37 80q0 20 -7 39.5t-25.5 34 t-51.5 23.5t-86 9h-94v-211zM457 653h100q78 0 104.5 34t26.5 71q0 35 -27.5 64.5t-101.5 29.5q-23 0 -52.5 -1t-49.5 -3v-195z" />
<glyph unicode="c" horiz-adv-x="964" d="M63 528q0 123 35 225.5t102.5 175t166 113.5t225.5 41q43 0 82 -2t76.5 -8t77.5 -18.5t90 -30.5q1 -14 1 -27q1 -55 -13 -111q-16 -68 -52 -134q-35 12 -62.5 19t-52 11t-48 5t-50.5 1q-98 0 -162.5 -58t-64.5 -202q0 -76 19.5 -126t51 -78.5t73.5 -41t89 -12.5 q59 0 103.5 10.5t103.5 32.5q35 -55 55.5 -123.5t20.5 -156.5q-94 -37 -172 -47.5t-156 -10.5q-131 0 -231.5 39t-169 112t-103.5 174t-35 228z" />
<glyph unicode="d" horiz-adv-x="1163" d="M115 2v1053q86 10 182 19t180 9q166 0 284 -38.5t193.5 -109.5t110.5 -171t35 -223q0 -129 -36 -233.5t-113 -178.5t-198.5 -114t-293.5 -40q-100 0 -179 7.5t-165 19.5zM461 268q8 0 21.5 -2t39.5 -2q115 0 171.5 64.5t56.5 212.5q0 131 -55.5 191.5t-157.5 60.5 q-25 0 -45.5 -2.5t-30.5 -4.5v-518z" />
<glyph unicode="e" horiz-adv-x="1101" d="M63 522q0 117 33 219.5t98.5 178t164 119.5t229.5 44q109 0 193.5 -36.5t144 -101t91.5 -156t32 -197.5q0 -55 -5.5 -99t-9.5 -73h-622q23 -84 79 -119t148 -35q59 0 133 14.5t146 43.5q29 -53 50 -127t23 -154q-182 -68 -373 -68q-147 0 -252.5 41t-172 114t-98.5 173 t-32 219zM408 655h327q-4 72 -44 120t-116 48q-66 0 -112.5 -41t-54.5 -127z" />
<glyph unicode="f" horiz-adv-x="944" d="M115 4v1055h782q10 -41 13 -76t3 -68t-3 -68.5t-13 -76.5h-436v-164h352q10 -41 13 -75.5t3 -67.5t-3 -69t-13 -77h-352v-313q-43 -10 -88 -13t-84 -3q-41 0 -85 3t-89 13z" />
<glyph unicode="g" horiz-adv-x="1097" d="M63 537q0 113 36 213t106.5 173.5t175 116.5t242.5 43q72 0 157.5 -16t188.5 -57q-2 -35 -8.5 -66t-15.5 -62.5t-22.5 -67.5t-31.5 -81q-70 29 -129.5 42t-102.5 13q-68 0 -114.5 -20t-75.5 -55t-42 -81t-13 -95q0 -137 59 -202t174 -65h37v301q51 10 91 14.5t77 4.5 q72 0 170 -19v-520q-59 -23 -166 -49.5t-248 -26.5q-147 0 -250.5 44t-169 120t-95.5 178.5t-30 219.5z" />
<glyph unicode="h" horiz-adv-x="1224" d="M115 2v1057q45 10 89 14t85 4q39 0 84 -4t88 -14v-361h303v361q45 10 89 14t85 4q39 0 84 -4t88 -14v-1057q-53 -8 -96 -12t-78 -4t-78 4t-94 12v389h-303v-389q-53 -8 -96 -12t-78 -4t-78 4t-94 12z" />
<glyph unicode="i" horiz-adv-x="575" d="M115 2v1057q45 10 89 14t85 4q39 0 84 -4t88 -14v-1057q-53 -8 -96 -12t-78 -4t-78 4t-94 12z" />
<glyph unicode="j" horiz-adv-x="772" d="M20 74q0 53 10.5 106t28.5 111q8 -2 24.5 -5t36 -5t37 -4.5t27.5 -2.5q23 0 48.5 3.5t47 18.5t35 46t13.5 86v342h-205q-10 41 -13.5 77t-3.5 68q0 33 3.5 68t13.5 76h551v-651q0 -117 -34 -200t-94.5 -134t-141 -75t-175.5 -24q-31 0 -87 7.5t-117 27.5q-2 16 -3.5 31.5 t-1.5 32.5z" />
<glyph unicode="k" horiz-adv-x="1153" d="M115 4v1055q45 10 89 14t85 4q39 0 84 -4t88 -14v-1055q-53 -10 -96 -13t-76 -3q-35 0 -78 3t-96 13zM494 553l241 506q37 8 90.5 12t94.5 4q53 0 107 -4t87 -12l-254 -492l283 -563q-37 -8 -92.5 -12t-96.5 -4q-53 0 -105 4t-83 12z" />
<glyph unicode="l" horiz-adv-x="894" d="M115 0l2 1059q45 10 89 14t85 4q39 0 84 -4t88 -14l-2 -770h387q10 -41 13 -76t3 -68t-3 -68.5t-13 -76.5h-733z" />
<glyph unicode="m" horiz-adv-x="1724" d="M115 2v1006q72 25 172 48t254 23q84 0 165.5 -13t151.5 -54q53 27 125 47t162 20q80 0 165 -15t153.5 -64.5t112.5 -141.5t44 -244v-612q-53 -10 -96 -13t-76 -3q-35 0 -78 3t-96 13v576q0 109 -37 155.5t-121 46.5q-29 0 -56.5 -6t-37.5 -10q18 -72 18 -164v-598 q-53 -10 -96 -13t-76 -3q-35 0 -77.5 3t-96.5 13v576q0 109 -34.5 155.5t-118.5 46.5q-23 0 -48.5 -4t-31.5 -8v-766q-53 -10 -96 -13t-76 -3q-35 0 -78 3t-96 13z" />
<glyph unicode="n" horiz-adv-x="1157" d="M115 2v1006q72 25 174 48t256 23q90 0 180 -15t163 -64.5t119 -141.5t46 -244v-612q-53 -10 -96.5 -13t-75.5 -3q-35 0 -78 3t-96 13v576q0 109 -41 155.5t-125 46.5q-23 0 -48.5 -4t-31.5 -8v-766q-53 -10 -96 -13t-76 -3q-35 0 -78 3t-96 13z" />
<glyph unicode="o" horiz-adv-x="1181" d="M63 524q0 125 34 228.5t100.5 177.5t165 113.5t227.5 39.5q131 0 229.5 -39.5t165 -113.5t100 -177.5t33.5 -228.5q0 -123 -33.5 -224t-100 -174t-165 -112t-229.5 -39q-129 0 -227.5 39t-165 112t-100.5 174t-34 224zM414 524q0 -129 43 -198.5t133 -69.5t134 69.5 t44 198.5q0 131 -44 201t-134 70t-133 -70t-43 -201z" />
<glyph unicode="p" horiz-adv-x="1056" d="M115 2v1053q94 14 193.5 21t191.5 7q94 0 184 -17t162 -63.5t116 -127t44 -209.5q0 -117 -40 -197t-105.5 -129t-148.5 -70.5t-169 -21.5q-35 0 -59.5 2t-30.5 4v-252q-53 -10 -95.5 -13t-74.5 -3q-35 0 -75 3t-93 13zM453 512q10 -2 25.5 -3t25.5 -1q72 0 118 36t46 122 q0 74 -46.5 113.5t-113.5 39.5h-23.5t-31.5 -2v-305z" />
<glyph unicode="q" horiz-adv-x="1181" d="M63 524q0 125 34 228.5t100.5 177.5t165 113.5t227.5 39.5q131 0 229.5 -39.5t165 -113.5t100 -177.5t33.5 -228.5q0 -123 -33.5 -224t-100 -174t-165 -112t-229.5 -39q-129 0 -227.5 39t-165 112t-100.5 174t-34 224zM414 524q0 -129 43 -198.5t133 -69.5t134 69.5 t44 198.5q0 131 -44 201t-134 70t-133 -70t-43 -201zM524 -285q2 59 13.5 124t31.5 120l559 -80q-2 -59 -13 -123.5t-32 -120.5z" />
<glyph unicode="r" horiz-adv-x="1124" d="M115 2v1053q96 12 199.5 20t195.5 8q248 0 372 -93t124 -261q0 -63 -14.5 -110.5t-35 -81t-43 -54t-36.5 -32.5l233 -447q-41 -8 -91 -12t-97 -4q-57 0 -110.5 4t-88.5 12l-227 483l28 17q72 41 98.5 87t26.5 99t-31.5 87t-101.5 34q-39 0 -59 -4v-805q-53 -10 -96.5 -13 t-75.5 -3q-35 0 -76 3t-94 13z" />
<glyph unicode="s" horiz-adv-x="962" d="M49 39q10 139 76 283q66 -31 137.5 -46.5t143.5 -15.5q25 0 51 2t46.5 9.5t34 19.5t13.5 33q0 27 -26.5 40t-61.5 23l-139 39q-109 31 -180.5 104.5t-71.5 200.5q0 80 32.5 145.5t92 111.5t140.5 70.5t179 24.5q78 0 170 -16t182 -47q-4 -66 -26.5 -140.5t-50.5 -131.5 q-55 23 -133 41t-144 18q-96 0 -96 -53q0 -23 22.5 -35t51.5 -21l133 -34q61 -16 111 -40t86 -61t56.5 -90t20.5 -129q0 -78 -31.5 -145.5t-94 -116.5t-154 -78t-209.5 -29q-98 0 -182.5 14.5t-178.5 49.5z" />
<glyph unicode="t" horiz-adv-x="1046" d="M31 915q0 33 3 68t13 76h952q10 -41 13.5 -76t3.5 -68t-3 -68.5t-14 -76.5h-303v-768q-53 -8 -96 -12t-78 -4t-78 4t-94 12v768h-303q-10 41 -13 77t-3 68z" />
<glyph unicode="u" horiz-adv-x="1157" d="M104 461v598q45 10 89.5 14t85.5 4q39 0 84 -4t88 -14v-570q0 -123 40.5 -168t124.5 -45q35 0 53.5 2.5t26.5 4.5v776q45 10 89 14t85 4q39 0 84 -4t88 -14v-1010q-35 -12 -83 -24.5t-102 -23.5t-111.5 -17.5t-112.5 -6.5q-104 0 -200.5 16.5t-169.5 67t-116 145.5 t-43 255z" />
<glyph unicode="v" horiz-adv-x="1148" d="M10 1059q23 4 81.5 8t125.5 4q53 0 106.5 -4t69.5 -8l187 -635q47 158 91 319.5t89 315.5q16 4 67.5 8t104.5 4q68 0 126 -4t81 -8l-402 -1055q-43 -10 -87 -13t-85 -3t-84 3t-78 13z" />
<glyph unicode="w" horiz-adv-x="1636" d="M12 1059q23 4 79 8t124 4q53 0 103.5 -4t66.5 -8l133 -627l148 627q35 10 76.5 13t82.5 3t83 -3t85 -13l146 -610l127 610q16 4 63 8t101 4q68 0 120 -4t74 -8l-332 -1055q-35 -10 -75.5 -13t-81.5 -3t-83 3t-87 13l-150 574q-39 -137 -79 -289t-77 -285q-43 -10 -85 -13 t-82 -3q-41 0 -82 3t-76 13z" />
<glyph unicode="x" horiz-adv-x="1097" d="M10 4l226 547l-185 508q23 4 75 8t120 4q53 0 101 -4t65 -8l137 -492l135 492q16 4 64.5 8t101.5 4q68 0 121 -4t76 -8l-185 -508l225 -549q-23 -4 -70.5 -9t-109.5 -5q-59 0 -106 5t-64 9l-188 524l-189 -524q-16 -4 -61 -9t-98 -5q-68 0 -118 6t-73 10z" />
<glyph unicode="y" horiz-adv-x="1155" d="M10 1059q23 4 79 8t124 4q53 0 104.5 -4t67.5 -8l201 -404l200 404q16 4 62.5 8t99.5 4q68 0 121 -4t76 -8l-395 -686v-371q-53 -8 -96.5 -12t-78.5 -4t-77.5 4t-94.5 12v371z" />
<glyph unicode="z" horiz-adv-x="985" d="M14 61l428 717h-350q-10 45 -13 79t-3 65t3 62.5t13 74.5h834l20 -66l-430 -712h391q14 -84 15 -144q0 -31 -3.5 -62.5t-11.5 -74.5h-860z" />
<glyph unicode="{" horiz-adv-x="880" d="M92 592v94q51 25 85 50.5t54.5 58t28.5 73.5t10 95l6 204q4 104 25 187.5t68 140.5t125.5 88t201.5 31h40t55 -4q18 -84 18 -142q0 -61 -18 -143h-64q-41 0 -65.5 -14.5t-37 -44t-15.5 -74.5t-3 -109q0 -111 -8 -184.5t-24.5 -122.5t-41 -80.5t-57.5 -56.5 q33 -25 57.5 -56.5t41 -81.5t24.5 -124t8 -184q0 -63 3 -108.5t15.5 -75t37 -44t65.5 -14.5h64q18 -84 18 -144q0 -59 -18 -141q-35 -4 -54.5 -4h-40.5q-123 0 -201.5 31t-125.5 88t-67.5 140t-25.5 188l-6 206q-2 53 -10 94.5t-28.5 73t-54.5 58t-85 51.5z" />
<glyph unicode="|" horiz-adv-x="714" d="M188 -338v1923q51 8 92.5 12.5t75.5 4.5q35 0 78 -4.5t92 -12.5v-1923q-102 -18 -168 -18q-70 0 -170 18z" />
<glyph unicode="}" horiz-adv-x="880" d="M72 -193q0 59 18 144h64q41 0 65.5 14.5t36.5 44t15 74.5t3 109q0 111 8.5 184.5t25 123.5t41 81.5t57.5 56.5q-33 25 -57.5 56.5t-41 80.5t-25 123t-8.5 184q0 63 -3 108.5t-15 75t-36.5 44t-65.5 14.5h-64q-18 82 -18 143q0 57 18 142q35 4 54.5 4h39.5q123 0 202 -31 t126 -88t67.5 -140t24.5 -188l6 -204q2 -53 10.5 -94.5t29 -74t54 -58t84.5 -50.5v-94q-51 -25 -84.5 -51.5t-54 -58t-29 -72.5t-10.5 -95l-6 -206q-4 -104 -24.5 -187.5t-67.5 -140.5t-126 -88t-202 -31h-39.5t-54.5 4q-18 82 -18 141z" />
<glyph unicode="~" horiz-adv-x="954" d="M4 872q49 57 127 99.5t176 42.5q47 0 90 -12.5t88 -28.5q39 -12 78 -24.5t80 -12.5q18 0 34.5 3t36 12.5t42 24.5t51.5 42q53 -51 89 -112.5t54 -119.5q-51 -59 -129 -99t-176 -40q-49 0 -95 12.5t-91 28.5q-41 12 -78 23.5t-72 11.5q-18 0 -35.5 -2t-36 -10.5t-40 -24.5 t-52.5 -43q-49 51 -87 109.5t-54 119.5z" />
<glyph unicode="&#xa1;" horiz-adv-x="618" d="M123 1296q0 39 4 82t10 90q47 8 89 12.5t83 4.5t83 -4t89 -13q6 -47 10.5 -90t4.5 -82t-4.5 -80.5t-10.5 -89.5q-47 -8 -89 -12t-83 -4t-83 4t-89 12q-6 47 -10 89t-4 81zM127 0l18 954q100 18 164 19q61 0 164 -19l19 -954q-49 -8 -95.5 -10t-87.5 -2t-86 2t-96 10z" />
<glyph unicode="&#xa2;" horiz-adv-x="954" d="M63 528q0 100 26 190.5t76 162t126 122t174 68.5v225q16 6 50 11.5t65 5.5q29 0 62.5 -5t53.5 -12v-219q49 -4 98.5 -17t112.5 -38q4 -70 -12 -138.5t-51 -133.5q-35 12 -62.5 19t-51 11t-47.5 6t-50 2q-98 0 -158.5 -65.5t-60.5 -194.5q0 -137 64.5 -197.5t156.5 -60.5 q59 0 104 11.5t105 33.5q35 -55 55.5 -123.5t20.5 -156.5q-63 -25 -117.5 -38t-106.5 -17v-218q-20 -6 -54 -11t-62 -5q-31 0 -65 5t-50 11v226q-100 18 -175 67t-125 120t-76 161t-26 192z" />
<glyph unicode="&#xa3;" horiz-adv-x="1191" d="M115 707q0 29 3 59.5t11 77.5h125q-4 37 -6 80t-2 84q0 86 29.5 169t91 148.5t155.5 106.5t223 41q109 0 192 -18.5t163 -53.5q-4 -59 -22.5 -135t-59.5 -160q-47 23 -102.5 43t-133.5 20q-51 0 -85.5 -17t-56.5 -44t-31 -58.5t-9 -62.5q0 -39 4 -77t8 -66h297 q8 -49 11.5 -81t3.5 -65q0 -29 -3 -59.5t-12 -77.5h-256q2 -6 2 -13v-13q0 -53 -8 -110.5t-31 -109.5h474q10 -49 12 -88t2 -67q0 -33 -2 -71t-12 -89h-940l-19 63q33 27 64.5 67t56 93t39 116.5t14.5 135.5q0 39 -6 86h-170q-8 49 -11 82t-3 64z" />
<glyph unicode="&#xa4;" d="M47 367l133 133q-23 45 -35 96t-12 104q0 55 14.5 107.5t36.5 97.5l-135 137q33 72 84 120t121 87l141 -141q94 45 199 45q104 0 199 -45l141 143q57 -37 110.5 -87t92.5 -117l-136 -134q25 -47 40.5 -100t15.5 -113q0 -53 -13.5 -106t-35.5 -100q31 -33 66.5 -68 t64.5 -61q-39 -59 -90.5 -112.5t-116.5 -92.5l-135 137q-94 -47 -203 -47t-207 47l-133 -135q-74 35 -122 87t-85 118zM416 700q0 -86 51 -137t127 -51q78 0 129 51t51 137t-51 139.5t-129 53.5q-76 0 -127 -53.5t-51 -139.5z" />
<glyph unicode="&#xa5;" horiz-adv-x="1202" d="M4 1448q29 4 87.5 8t111.5 4q43 0 95 -4t83 -8l227 -492l217 492q47 8 94.5 10t100.5 2q35 0 89 -3t89 -9l-334 -627h256q4 -16 7 -41.5t3 -54.5q0 -63 -10 -94h-340v-127h340q4 -16 7 -42t3 -54q0 -63 -10 -95h-340v-309q-53 -10 -98 -13t-82 -3q-35 0 -82 3t-100 13 v309h-307q-10 31 -11 95q0 29 3 54t8 42h307v127h-307q-10 31 -11 94q0 29 3 54.5t8 41.5h223z" />
<glyph unicode="&#xa6;" horiz-adv-x="714" d="M188 -338v676q51 8 92.5 12t75.5 4q35 0 78 -4t92 -12v-676q-102 -18 -168 -18q-70 0 -170 18zM188 907v678q51 8 92.5 12.5t75.5 4.5q35 0 78 -4.5t92 -12.5v-678q-49 -8 -92 -12t-78 -4t-75.5 4t-92.5 12z" />
<glyph unicode="&#xa7;" horiz-adv-x="1169" d="M111 711q0 143 125 237q-41 35 -55.5 82t-14.5 98q0 162 126 253.5t345 91.5q94 0 180 -14.5t178 -49.5q-4 -66 -27.5 -138.5t-52.5 -127.5q-18 8 -47.5 18t-66.5 20.5t-79 17.5t-81 7q-70 0 -98.5 -17.5t-28.5 -45.5q0 -20 21.5 -35.5t50.5 -24.5l241 -69 q135 -41 185.5 -114t50.5 -159q0 -72 -31 -132t-96 -109q41 -35 56.5 -82t15.5 -99q0 -82 -39 -145t-107.5 -107t-162 -68t-201.5 -24q-94 0 -188.5 15.5t-186.5 50.5q4 66 29.5 139.5t58.5 130.5q47 -23 127 -45t178 -22q80 0 111.5 15t31.5 40q0 29 -24.5 43t-59.5 25 l-213 63q-139 43 -195 120t-56 161zM416 754q0 -23 19.5 -44.5t66.5 -35.5l217 -60q33 33 33 78q0 25 -18.5 49.5t-84.5 42.5l-198 54q-14 -16 -24.5 -39t-10.5 -45z" />
<glyph unicode="&#xa8;" horiz-adv-x="983" d="M106 1323q0 61 13 123q31 6 71.5 9t69.5 3t70 -3t73 -9q12 -61 13 -123q0 -61 -13 -123q-33 -6 -73.5 -9t-69.5 -3t-69.5 3t-71.5 9q-13 62 -13 123zM567 1323q0 61 13 123q31 6 71.5 9t69.5 3t69.5 -3t73.5 -9q12 -61 13 -123q0 -61 -13 -123q-33 -6 -73.5 -9t-69.5 -3 t-70 3t-71 9q-13 62 -13 123z" />
<glyph unicode="&#xa9;" horiz-adv-x="1642" d="M61 735q0 162 55.5 302.5t155 241.5t239.5 159.5t310 58.5t310.5 -57.5t239.5 -159.5t154.5 -241.5t55.5 -303.5t-55.5 -303t-154.5 -240.5t-239.5 -160t-310.5 -58.5t-310 58.5t-239.5 160t-155 240.5t-55.5 303zM260 735q0 -121 39 -226.5t111.5 -182t176 -120.5 t234.5 -44t234.5 44t176.5 120.5t111.5 182t38.5 226.5t-38.5 226.5t-111.5 182.5t-176.5 121t-234.5 44t-234.5 -44t-176 -121t-111.5 -182.5t-39 -226.5zM424 737q0 86 27.5 164t79 136.5t126 93t168.5 34.5q74 0 129.5 -8t126.5 -37q0 -55 -12 -120.5t-41 -122.5 q-41 16 -83 25t-77 9q-72 0 -115.5 -46t-43.5 -128q0 -90 45 -133t120 -43q78 0 156 39q8 -16 19.5 -44t19.5 -61.5t14.5 -70.5t6.5 -70q-72 -29 -133.5 -37t-122.5 -8q-98 0 -174 32t-128.5 89t-80 136t-27.5 171z" />
<glyph unicode="&#xaa;" horiz-adv-x="874" d="M49 903q0 80 34 132t87 83t118.5 43.5t131.5 12.5h39t35 -3q-4 49 -35 71t-103 22q-86 0 -196 -35q-31 49 -44.5 98t-13.5 96q74 23 151 36.5t138 13.5q172 0 267.5 -81t95.5 -259v-455q-55 -18 -143.5 -35.5t-184.5 -17.5q-84 0 -153.5 14t-119 48t-77 86t-27.5 130z M301 911q0 -27 14.5 -42t34 -22t42 -8t38.5 -1t32.5 1t31.5 3v155q-16 2 -32 2h-42q-55 0 -87 -20.5t-32 -67.5z" />
<glyph unicode="&#xab;" horiz-adv-x="1337" d="M61 545l320 454q31 8 77 13.5t95 5.5q98 0 195 -19l-316 -454l316 -455q-96 -18 -195 -18q-49 0 -95 5t-77 13zM608 545l320 454q31 8 77 13.5t95 5.5q98 0 195 -19l-316 -454l316 -455q-96 -18 -195 -18q-49 0 -95 5t-77 13z" />
<glyph unicode="&#xac;" d="M135 721q0 35 4 71.5t13 77.5h899v-612q-41 -8 -76 -12t-70 -4q-66 0 -147 16v320h-606q-8 41 -12.5 74.5t-4.5 68.5z" />
<glyph unicode="&#xad;" horiz-adv-x="755" d="M86 559q0 70 18 156h549q10 -43 13.5 -81t3.5 -73t-3 -73.5t-14 -81.5h-549q-18 85 -18 153z" />
<glyph unicode="&#xae;" horiz-adv-x="1642" d="M61 735q0 162 55.5 302.5t155 241.5t239.5 159.5t310 58.5t310.5 -57.5t239.5 -159.5t154.5 -241.5t55.5 -303.5t-55.5 -303t-154.5 -240.5t-239.5 -160t-310.5 -58.5t-310 58.5t-239.5 160t-155 240.5t-55.5 303zM260 735q0 -121 39 -226.5t111.5 -182t176 -120.5 t234.5 -44t234.5 44t176.5 120.5t111.5 182t38.5 226.5t-38.5 226.5t-111.5 182.5t-176.5 121t-234.5 44t-234.5 -44t-176 -121t-111.5 -182.5t-39 -226.5zM508 358v791q63 10 120.5 16t125.5 6q201 0 301 -72.5t100 -201.5q0 -82 -31.5 -133t-72.5 -84l139 -320 q-41 -4 -79 -7t-79 -3q-31 0 -56.5 1t-55.5 7l-140 361l37 29q23 16 52.5 52t29.5 77t-25.5 65.5t-80.5 24.5h-41v-609q-35 -6 -62.5 -8t-56.5 -2q-27 0 -58.5 2t-66.5 8z" />
<glyph unicode="&#xaf;" horiz-adv-x="983" d="M168 1346q0 27 3 56.5t11 57.5h619q14 -55 14 -114q0 -25 -3 -55.5t-11 -59.5h-619q-8 29 -11 58.5t-3 56.5z" />
<glyph unicode="&#xb0;" horiz-adv-x="792" d="M57 1157q0 70 27 129.5t73 104.5t107.5 70.5t130.5 25.5q70 0 132.5 -25.5t108.5 -70.5t72.5 -104.5t26.5 -129.5q0 -68 -26.5 -127t-72.5 -103t-108.5 -70t-132.5 -26t-131 26t-107 70t-73 103t-27 127zM279 1157q0 -51 35.5 -86t80.5 -35t82 35t37 86q0 53 -37 89 t-82 36t-80.5 -36t-35.5 -89z" />
<glyph unicode="&#xb1;" d="M131 123q0 35 4 70.5t10 76.5h301v308h-301q-6 41 -10 74.5t-4 70.5q0 35 4 70.5t10 76.5h301v326q39 8 74 12t72 4q35 0 70.5 -4t76.5 -12v-326h299q8 -41 12.5 -75.5t4.5 -69.5t-4 -71t-13 -76h-299v-308h299q8 -41 12.5 -75.5t4.5 -69.5t-4 -71t-13 -77h-893 q-6 41 -10 75t-4 71z" />
<glyph unicode="&#xb2;" horiz-adv-x="921" d="M74 672l223 270q72 86 104.5 140.5t32.5 88.5q0 37 -26.5 57.5t-73.5 20.5q-49 0 -87 -13t-97 -40q-20 41 -39 95.5t-25 113.5q51 29 129 48.5t154 19.5q154 0 247 -73t93 -204q0 -49 -16.5 -95t-41 -87t-53.5 -76t-53 -64l-23 -26h221q8 -35 10.5 -60.5t2.5 -50.5 t-2 -51.5t-11 -60.5h-651z" />
<glyph unicode="&#xb3;" horiz-adv-x="921" d="M92 643q2 59 22.5 117.5t45.5 95.5q35 -16 87 -32.5t105 -16.5q57 0 99.5 22.5t42.5 71.5q0 35 -30 60.5t-95 25.5q-16 0 -36 -2t-61 -14l-36 43l147 215h-236q-8 31 -10 57.5t-2 50.5q0 25 2 50.5t10 56.5h572l24 -43l-174 -264q94 -23 142.5 -87.5t48.5 -150.5 q0 -76 -30 -132t-82 -94t-123.5 -57.5t-153.5 -19.5q-90 0 -159 14.5t-120 32.5z" />
<glyph unicode="&#xb4;" horiz-adv-x="983" d="M193 1200l219 252q80 12 188 12q53 0 103.5 -3t87.5 -9l-299 -252q-61 -12 -150 -12q-39 0 -77 2t-72 10z" />
<glyph unicode="&#xb5;" horiz-adv-x="1169" d="M115 -461v1520q45 10 90 14t86 4q39 0 84 -4t88 -14v-570q0 -123 41 -168t125 -45q35 0 53 2.5t27 4.5v776q45 10 89 14t85 4q39 0 84 -4t88 -14v-1010q-72 -25 -170 -48.5t-213 -23.5q-92 0 -143.5 18.5t-67.5 35.5v-492q-43 -10 -88 -14t-84 -4q-41 0 -85 4t-89 14z " />
<glyph unicode="&#xb6;" horiz-adv-x="1269" d="M82 1034q0 244 174 347.5t524 103.5v-1497q-92 0 -160.5 4t-87.5 8v627q-86 2 -166.5 25.5t-143 70.5t-101.5 124t-39 187zM889 -12v1497q41 0 112.5 -2t135.5 -10v-1473q-18 -4 -87 -8t-161 -4z" />
<glyph unicode="&#xb7;" horiz-adv-x="606" d="M113 662q0 41 4 83.5t12 90.5q47 6 90 10t84 4t84 -4t90 -10q8 -47 12.5 -90.5t4.5 -83.5q0 -41 -4.5 -84t-12.5 -91q-47 -8 -90 -12t-84 -4t-84 4t-90 12q-8 47 -12 90.5t-4 84.5z" />
<glyph unicode="&#xb8;" horiz-adv-x="983" d="M233 -467q0 23 10.5 64t32.5 73q39 -12 71 -17t71 -5q53 0 73.5 18.5t20.5 42.5q0 25 -20.5 40t-61.5 15q-20 0 -45 -3t-76 -19l-41 41l172 270h172l-100 -155q113 -4 176.5 -52.5t63.5 -126.5q0 -106 -89.5 -160.5t-240.5 -54.5q-47 0 -97.5 6.5t-91.5 22.5z" />
<glyph unicode="&#xb9;" horiz-adv-x="921" d="M117 1294l415 164h68v-612h162q8 -35 10 -59.5t2 -49.5t-2 -51.5t-10 -60.5h-576q-8 35 -10 61.5t-2 50.5q0 25 2 49.5t10 59.5h166v303l-141 -55q-35 47 -58.5 100t-35.5 100z" />
<glyph unicode="&#xba;" horiz-adv-x="894" d="M45 1038q0 84 23.5 162t72.5 138.5t124 97.5t179 37t181 -37t126.5 -97.5t74 -138.5t24.5 -162t-24.5 -161.5t-74 -137t-126 -96.5t-181.5 -37q-104 0 -179 37t-124 96.5t-72.5 137t-23.5 161.5zM330 1038q0 -96 27.5 -149t86.5 -53q61 0 90 53t29 149q0 98 -28.5 150.5 t-90.5 52.5q-59 0 -86.5 -52t-27.5 -151z" />
<glyph unicode="&#xbb;" horiz-adv-x="1335" d="M43 90l315 455l-315 454q94 18 195 19q49 0 95 -5t77 -14l319 -454l-319 -455q-31 -8 -77 -13t-95 -5q-100 0 -195 18zM588 90l315 455l-315 454q94 18 195 19q49 0 95 -5t77 -14l319 -454l-319 -455q-31 -8 -77 -13t-95 -5q-100 0 -195 18z" />
<glyph unicode="&#xbc;" horiz-adv-x="1898" d="M33 1294l415 164h68v-612h162q8 -35 10 -59.5t2 -49.5t-2 -51.5t-10 -60.5h-576q-8 35 -10 61.5t-2 50.5q0 25 2 49.5t10 59.5h166v303l-141 -55q-35 47 -58.5 100t-35.5 100zM396 4l846 1448q35 6 74.5 9t76.5 3q33 0 70 -1t92 -11l-846 -1448q-35 -6 -75 -9t-76 -3 q-33 0 -70 1t-92 11zM1096 155l317 701q59 -6 109.5 -21.5t101.5 -50.5l-207 -477h119v131q31 4 59.5 6t59.5 2q29 0 54.5 -2t55.5 -6v-131h74q12 -49 12 -101q0 -45 -12 -94h-74v-110q-31 -4 -56.5 -7.5t-57.5 -3.5q-29 0 -54.5 2t-60.5 9v110h-414z" />
<glyph unicode="&#xbd;" horiz-adv-x="1972" d="M33 1294l415 164h68v-612h162q8 -35 10 -59.5t2 -49.5t-2 -51.5t-10 -60.5h-576q-8 35 -10 61.5t-2 50.5q0 25 2 49.5t10 59.5h166v303l-141 -55q-35 47 -58.5 100t-35.5 100zM396 4l846 1448q35 6 74.5 9t76.5 3q33 0 70 -1t92 -11l-846 -1448q-35 -6 -75 -9t-76 -3 q-33 0 -70 1t-92 11zM1243 49l223 270q72 86 104.5 140.5t32.5 88.5q0 37 -26.5 57.5t-73.5 20.5q-49 0 -87 -13t-97 -40q-20 41 -39 95.5t-25 113.5q51 29 129 48.5t154 19.5q154 0 247 -73t93 -204q0 -49 -16.5 -95t-41 -87t-53.5 -76t-53 -64l-23 -26h221 q8 -35 10.5 -60.5t2.5 -50.5t-2 -51.5t-11 -60.5h-651z" />
<glyph unicode="&#xbe;" horiz-adv-x="1863" d="M49 643q2 59 22.5 117.5t45.5 95.5q35 -16 87 -32.5t105 -16.5q57 0 99.5 22.5t42.5 71.5q0 35 -30 60.5t-95 25.5q-16 0 -36 -2t-61 -14l-36 43l147 215h-236q-8 31 -10 57.5t-2 50.5q0 25 2 50.5t10 56.5h572l24 -43l-174 -264q94 -23 142.5 -87.5t48.5 -150.5 q0 -76 -30 -132t-82 -94t-123.5 -57.5t-153.5 -19.5q-90 0 -159 14.5t-120 32.5zM361 4l846 1448q35 6 74.5 9t76.5 3q33 0 70 -1t92 -11l-846 -1448q-35 -6 -75 -9t-76 -3q-33 0 -70 1t-92 11zM1061 170l317 701q59 -6 109.5 -21.5t101.5 -50.5l-207 -477h119v131 q31 4 59.5 6t59.5 2q29 0 54.5 -2t55.5 -6v-131h74q12 -49 12 -101q0 -45 -12 -94h-74v-110q-31 -4 -56.5 -7.5t-57.5 -3.5q-29 0 -54.5 2t-60.5 9v110h-414z" />
<glyph unicode="&#xbf;" horiz-adv-x="980" d="M41 412q0 90 31.5 156.5t78 114.5t97.5 79t92 49v186q45 6 88 10.5t78 4.5q37 0 79 -4t83 -11v-385q-53 -6 -104.5 -19t-91.5 -35.5t-64.5 -56.5t-24.5 -81q0 -70 51 -105.5t137 -35.5q39 0 70 3t60.5 10t61.5 17.5t73 24.5q12 -27 25 -61.5t23.5 -71.5t18.5 -73t10 -67 q-115 -41 -197.5 -57t-176.5 -16q-248 0 -373 112.5t-125 311.5zM322 1282q0 41 4 84t12 90q47 8 90 12.5t84 4.5t84 -4.5t90 -12.5q8 -47 12 -90t4 -84t-4 -84t-12 -90q-47 -6 -90 -10t-84 -4t-84 4t-90 10q-8 47 -12 90t-4 84z" />
<glyph unicode="&#xc0;" horiz-adv-x="1314" d="M10 8l459 1462q53 6 99 10.5t94 4.5q39 0 85 -4t105 -11l453 -1464q-117 -18 -205 -18q-41 0 -82 4t-88 12l-78 285q-57 -16 -109.5 -24.5t-103.5 -8.5q-47 0 -96 7t-103 22l-75 -281q-47 -8 -86 -12t-76 -4t-85 5t-108 15zM236 1851q37 6 87 9t103 3q109 0 188 -12 l220 -252q-35 -8 -73 -10t-77 -2q-88 0 -149 12zM514 559q35 -10 65.5 -16t63.5 -6q35 0 68.5 5t70.5 15l-131 528z" />
<glyph unicode="&#xc1;" horiz-adv-x="1314" d="M10 8l459 1462q53 6 99 10.5t94 4.5q39 0 85 -4t105 -11l453 -1464q-117 -18 -205 -18q-41 0 -82 4t-88 12l-78 285q-57 -16 -109.5 -24.5t-103.5 -8.5q-47 0 -96 7t-103 22l-75 -281q-47 -8 -86 -12t-76 -4t-85 5t-108 15zM514 559q35 -10 65.5 -16t63.5 -6q35 0 68.5 5 t70.5 15l-131 528zM540 1599q35 -8 73 -10t77 -2q88 0 149 12l299 252q-37 6 -87 9t-103 3q-109 0 -188 -12z" />
<glyph unicode="&#xc2;" horiz-adv-x="1314" d="M10 8l459 1462q53 6 99 10.5t94 4.5q39 0 85 -4t105 -11l453 -1464q-117 -18 -205 -18q-41 0 -82 4t-88 12l-78 285q-57 -16 -109.5 -24.5t-103.5 -8.5q-47 0 -96 7t-103 22l-75 -281q-47 -8 -86 -12t-76 -4t-85 5t-108 15zM252 1599l260 252q33 6 76 8t70 2t69.5 -2 t75.5 -8l260 -252q-27 -8 -68 -11t-81 -3q-39 0 -78 2t-78 12l-100 98l-101 -98q-39 -10 -78 -12t-77 -2q-41 0 -82 3t-68 11zM514 559q35 -10 65.5 -16t63.5 -6q35 0 68.5 5t70.5 15l-131 528z" />
<glyph unicode="&#xc3;" horiz-adv-x="1314" d="M10 8l459 1462q53 6 99 10.5t94 4.5q39 0 85 -4t105 -11l453 -1464q-117 -18 -205 -18q-41 0 -82 4t-88 12l-78 285q-57 -16 -109.5 -24.5t-103.5 -8.5q-47 0 -96 7t-103 22l-75 -281q-47 -8 -86 -12t-76 -4t-85 5t-108 15zM266 1781q39 45 99.5 78t138.5 33 q41 0 77 -11.5t74 -25.5q35 -14 73 -25.5t79 -11.5t72.5 11.5t74.5 52.5q33 -35 56.5 -82t38.5 -96q-37 -47 -98.5 -79t-133.5 -32q-45 0 -86 12.5t-78 24.5q-39 14 -74.5 25.5t-72.5 11.5q-41 0 -75 -12.5t-70 -51.5q-33 35 -57 82t-38 96zM514 559q35 -10 65.5 -16 t63.5 -6q35 0 68.5 5t70.5 15l-131 528z" />
<glyph unicode="&#xc4;" horiz-adv-x="1314" d="M10 8l459 1462q53 6 99 10.5t94 4.5q39 0 85 -4t105 -11l453 -1464q-117 -18 -205 -18q-41 0 -82 4t-88 12l-78 285q-57 -16 -109.5 -24.5t-103.5 -8.5q-47 0 -96 7t-103 22l-75 -281q-47 -8 -86 -12t-76 -4t-85 5t-108 15zM272 1722q0 61 13 123q31 6 71.5 9t69.5 3 t70 -3t73 -9q12 -61 13 -123q0 -61 -13 -123q-33 -6 -73.5 -9t-69.5 -3t-69.5 3t-71.5 9q-13 62 -13 123zM514 559q35 -10 65.5 -16t63.5 -6q35 0 68.5 5t70.5 15l-131 528zM733 1722q0 61 13 123q31 6 71.5 9t69.5 3t69.5 -3t73.5 -9q12 -61 13 -123q0 -61 -13 -123 q-33 -6 -73.5 -9t-69.5 -3t-70 3t-71 9q-13 62 -13 123z" />
<glyph unicode="&#xc5;" horiz-adv-x="1314" d="M10 8l459 1460q-63 64 -63 162q0 111 73.5 172.5t182.5 61.5t182.5 -61.5t73.5 -172.5q0 -100 -66 -162l453 -1462q-117 -18 -205 -18q-41 0 -82 4t-88 12l-78 285q-57 -16 -109.5 -24.5t-103.5 -8.5q-47 0 -96 7t-103 22l-75 -281q-47 -8 -86 -12t-76 -4t-85 5t-108 15z M514 559q35 -10 65.5 -16t63.5 -6q35 0 68.5 5t70.5 15l-131 528zM559 1630q0 -45 29 -73.5t74 -28.5q43 0 72.5 28.5t29.5 73.5q0 43 -29.5 73t-72.5 30q-45 0 -74 -29t-29 -74z" />
<glyph unicode="&#xc6;" horiz-adv-x="1927" d="M0 0l795 1473h1040q8 -45 12 -84t4 -74q0 -68 -16 -162h-510v-225h404q18 -90 18 -160q0 -72 -18 -160h-404v-291h522q18 -86 19 -155q0 -76 -19 -162h-876v340q-18 -4 -69.5 -11t-110.5 -7q-68 0 -127.5 11t-108.5 27l-180 -360q-47 -8 -94.5 -10t-87.5 -2q-72 0 -115 3 t-78 9zM690 623q31 -10 71 -16.5t79 -6.5t75.5 4t55.5 10v560z" />
<glyph unicode="&#xc7;" horiz-adv-x="1247" d="M84 733q0 164 47 304.5t136 242.5t220 159.5t297 57.5q98 0 186.5 -14.5t196.5 -57.5q-4 -84 -30.5 -162.5t-55.5 -138.5q-41 14 -74.5 24.5t-64.5 16.5t-61.5 9.5t-65.5 3.5q-166 0 -257 -112t-91 -333q0 -434 364 -434q66 0 124.5 12.5t142.5 40.5q68 -147 90 -303 q-59 -23 -110.5 -37t-98.5 -21t-93 -10.5t-95 -3.5q-6 0 -11.5 1.5t-11.5 1.5l-51 -82q113 -4 176 -52.5t63 -126.5q0 -106 -89 -160.5t-240 -54.5q-47 0 -97.5 6.5t-91.5 22.5q0 23 10.5 64t32.5 73q39 -12 71 -17t71 -5q53 0 73.5 18.5t20.5 42.5q0 25 -20.5 40t-61.5 15 q-20 0 -45 -3t-76 -19l-41 41l135 213q-129 27 -227 92.5t-164.5 161.5t-99.5 219t-33 264z" />
<glyph unicode="&#xc8;" horiz-adv-x="1079" d="M123 0v1473h864q8 -45 12.5 -84t4.5 -74q0 -68 -17 -162h-502v-225h396q18 -90 18 -160q0 -72 -18 -160h-396v-291h514q18 -86 19 -155q0 -76 -19 -162h-876zM197 1851q37 6 87 9t103 3q109 0 188 -12l220 -252q-35 -8 -73 -10t-77 -2q-88 0 -149 12z" />
<glyph unicode="&#xc9;" horiz-adv-x="1079" d="M123 0v1473h864q8 -45 12.5 -84t4.5 -74q0 -68 -17 -162h-502v-225h396q18 -90 18 -160q0 -72 -18 -160h-396v-291h514q18 -86 19 -155q0 -76 -19 -162h-876zM438 1599q35 -8 73 -10t77 -2q88 0 149 12l299 252q-37 6 -87 9t-103 3q-109 0 -188 -12z" />
<glyph unicode="&#xca;" horiz-adv-x="1079" d="M123 0v1473h864q8 -45 12.5 -84t4.5 -74q0 -68 -17 -162h-502v-225h396q18 -90 18 -160q0 -72 -18 -160h-396v-291h514q18 -86 19 -155q0 -76 -19 -162h-876zM154 1599l260 252q33 6 76 8t70 2t69.5 -2t75.5 -8l260 -252q-27 -8 -68 -11t-81 -3q-39 0 -78 2t-78 12 l-100 98l-101 -98q-39 -10 -78 -12t-77 -2q-41 0 -82 3t-68 11z" />
<glyph unicode="&#xcb;" horiz-adv-x="1079" d="M123 0v1473h864q8 -45 12.5 -84t4.5 -74q0 -68 -17 -162h-502v-225h396q18 -90 18 -160q0 -72 -18 -160h-396v-291h514q18 -86 19 -155q0 -76 -19 -162h-876zM172 1722q0 61 13 123q31 6 71.5 9t69.5 3t70 -3t73 -9q12 -61 13 -123q0 -61 -13 -123q-33 -6 -73.5 -9 t-69.5 -3t-69.5 3t-71.5 9q-13 62 -13 123zM633 1722q0 61 13 123q31 6 71.5 9t69.5 3t69.5 -3t73.5 -9q12 -61 13 -123q0 -61 -13 -123q-33 -6 -73.5 -9t-69.5 -3t-70 3t-71 9q-13 62 -13 123z" />
<glyph unicode="&#xcc;" horiz-adv-x="608" d="M-116 1851q37 6 87 9t103 3q109 0 188 -12l220 -252q-35 -8 -73 -10t-77 -2q-88 0 -149 12zM123 6v1462q55 8 100 12.5t80 4.5q37 0 83 -4t99 -13v-1462q-108 -18 -180 -18q-76 0 -182 18z" />
<glyph unicode="&#xcd;" horiz-adv-x="608" d="M123 6v1462q55 8 100 12.5t80 4.5q37 0 83 -4t99 -13v-1462q-108 -18 -180 -18q-76 0 -182 18zM172 1599q35 -8 73 -10t77 -2q88 0 149 12l299 252q-37 6 -87 9t-103 3q-109 0 -188 -12z" />
<glyph unicode="&#xce;" horiz-adv-x="608" d="M-100 1599l260 252q33 6 76 8t70 2t69.5 -2t75.5 -8l260 -252q-27 -8 -68 -11t-81 -3q-39 0 -78 2t-78 12l-100 98l-101 -98q-39 -10 -78 -12t-77 -2q-41 0 -82 3t-68 11zM123 6v1462q55 8 100 12.5t80 4.5q37 0 83 -4t99 -13v-1462q-108 -18 -180 -18q-76 0 -182 18z " />
<glyph unicode="&#xcf;" horiz-adv-x="608" d="M-80 1722q0 61 13 123q31 6 71.5 9t69.5 3t70 -3t73 -9q12 -61 13 -123q0 -61 -13 -123q-33 -6 -73.5 -9t-69.5 -3t-69.5 3t-71.5 9q-13 62 -13 123zM123 6v1462q55 8 100 12.5t80 4.5q37 0 83 -4t99 -13v-1462q-108 -18 -180 -18q-76 0 -182 18zM381 1722q0 61 13 123 q31 6 71.5 9t69.5 3t69.5 -3t73.5 -9q12 -61 13 -123q0 -61 -13 -123q-33 -6 -73.5 -9t-69.5 -3t-70 3t-71 9q-13 62 -13 123z" />
<glyph unicode="&#xd0;" horiz-adv-x="1402" d="M-4 743q0 51 18 113h109v612q31 4 78 9.5t102 9.5t113.5 7t113.5 3q387 0 588 -193.5t201 -576.5q0 -389 -205 -570.5t-606 -181.5q-102 0 -197.5 9.5t-187.5 21.5v627h-109q-18 61 -18 110zM485 297q14 -2 33 -2h39q80 0 150.5 19.5t122 68.5t81 133t29.5 215 q0 129 -30.5 215t-81 136.5t-118 72t-141.5 21.5q-41 0 -59 -1t-25 -1v-318h191q10 -31 13 -58.5t3 -52.5t-3 -53t-13 -59h-191v-336z" />
<glyph unicode="&#xd1;" horiz-adv-x="1349" d="M123 6v1462q45 8 82 12.5t71 4.5q37 0 77 -5t69 -12l475 -802v802q53 8 96 12.5t78 4.5t74 -4t82 -13l-2 -1462q-20 -6 -59.5 -12t-84.5 -6q-51 0 -92 7t-59 11l-477 799v-799q-90 -18 -164 -18t-166 18zM282 1781q39 45 99.5 78t138.5 33q41 0 77 -11.5t74 -25.5 q35 -14 73 -25.5t79 -11.5t72.5 11.5t74.5 52.5q33 -35 56.5 -82t38.5 -96q-37 -47 -98.5 -79t-133.5 -32q-45 0 -86 12.5t-78 24.5q-39 14 -74.5 25.5t-72.5 11.5q-41 0 -75 -12.5t-70 -51.5q-33 35 -57 82t-38 96z" />
<glyph unicode="&#xd2;" horiz-adv-x="1456" d="M84 731q0 164 38 304.5t116.5 242.5t200.5 160.5t290 58.5t289 -58.5t199.5 -160.5t116.5 -242.5t38 -304.5t-38 -302t-116.5 -239.5t-199.5 -158t-289 -56.5t-290 56.5t-200.5 158t-116.5 239.5t-38 302zM367 1851q37 6 87 9t103 3q109 0 188 -12l220 -252 q-35 -8 -73 -10t-77 -2q-88 0 -149 12zM465 731q0 -223 64.5 -332.5t199.5 -109.5q262 0 262 442q0 446 -260 447q-266 0 -266 -447z" />
<glyph unicode="&#xd3;" horiz-adv-x="1456" d="M84 731q0 164 38 304.5t116.5 242.5t200.5 160.5t290 58.5t289 -58.5t199.5 -160.5t116.5 -242.5t38 -304.5t-38 -302t-116.5 -239.5t-199.5 -158t-289 -56.5t-290 56.5t-200.5 158t-116.5 239.5t-38 302zM465 731q0 -223 64.5 -332.5t199.5 -109.5q262 0 262 442 q0 446 -260 447q-266 0 -266 -447zM602 1599q35 -8 73 -10t77 -2q88 0 149 12l299 252q-37 6 -87 9t-103 3q-109 0 -188 -12z" />
<glyph unicode="&#xd4;" horiz-adv-x="1456" d="M84 731q0 164 38 304.5t116.5 242.5t200.5 160.5t290 58.5t289 -58.5t199.5 -160.5t116.5 -242.5t38 -304.5t-38 -302t-116.5 -239.5t-199.5 -158t-289 -56.5t-290 56.5t-200.5 158t-116.5 239.5t-38 302zM322 1599l260 252q33 6 76 8t70 2t69.5 -2t75.5 -8l260 -252 q-27 -8 -68 -11t-81 -3q-39 0 -78 2t-78 12l-100 98l-101 -98q-39 -10 -78 -12t-77 -2q-41 0 -82 3t-68 11zM465 731q0 -223 64.5 -332.5t199.5 -109.5q262 0 262 442q0 446 -260 447q-266 0 -266 -447z" />
<glyph unicode="&#xd5;" horiz-adv-x="1456" d="M84 731q0 164 38 304.5t116.5 242.5t200.5 160.5t290 58.5t289 -58.5t199.5 -160.5t116.5 -242.5t38 -304.5t-38 -302t-116.5 -239.5t-199.5 -158t-289 -56.5t-290 56.5t-200.5 158t-116.5 239.5t-38 302zM336 1781q39 45 99.5 78t138.5 33q41 0 77 -11.5t74 -25.5 q35 -14 73 -25.5t79 -11.5t72.5 11.5t74.5 52.5q33 -35 56.5 -82t38.5 -96q-37 -47 -98.5 -79t-133.5 -32q-45 0 -86 12.5t-78 24.5q-39 14 -74.5 25.5t-72.5 11.5q-41 0 -75 -12.5t-70 -51.5q-33 35 -57 82t-38 96zM465 731q0 -223 64.5 -332.5t199.5 -109.5q262 0 262 442 q0 446 -260 447q-266 0 -266 -447z" />
<glyph unicode="&#xd6;" horiz-adv-x="1456" d="M84 731q0 164 38 304.5t116.5 242.5t200.5 160.5t290 58.5t289 -58.5t199.5 -160.5t116.5 -242.5t38 -304.5t-38 -302t-116.5 -239.5t-199.5 -158t-289 -56.5t-290 56.5t-200.5 158t-116.5 239.5t-38 302zM342 1722q0 61 13 123q31 6 71.5 9t69.5 3t70 -3t73 -9 q12 -61 13 -123q0 -61 -13 -123q-33 -6 -73.5 -9t-69.5 -3t-69.5 3t-71.5 9q-13 62 -13 123zM465 731q0 -223 64.5 -332.5t199.5 -109.5q262 0 262 442q0 446 -260 447q-266 0 -266 -447zM803 1722q0 61 13 123q31 6 71.5 9t69.5 3t69.5 -3t73.5 -9q12 -61 13 -123 q0 -61 -13 -123q-33 -6 -73.5 -9t-69.5 -3t-70 3t-71 9q-13 62 -13 123z" />
<glyph unicode="&#xd7;" d="M172 512l219 211l-219 209q20 35 45 64.5t47 52.5q23 25 57.5 51t59.5 41l213 -215l209 215q25 -14 59.5 -41t57.5 -51q23 -23 47 -52.5t45 -64.5l-217 -209l217 -213q-20 -35 -45 -64.5t-47 -52.5q-23 -25 -57 -50.5t-58 -39.5l-211 219l-213 -219q-25 14 -59.5 41 t-57.5 51q-23 23 -47 52.5t-45 64.5z" />
<glyph unicode="&#xd8;" horiz-adv-x="1488" d="M84 0l158 213q-72 98 -105 230t-33 288q0 164 38 304.5t117 242.5t201 160.5t290 58.5q113 0 205 -27.5t163 -76.5l60 80q14 4 41.5 6t62.5 2t67.5 -2t55.5 -6l-156 -209q72 -102 108 -237.5t36 -295.5q0 -164 -38 -302t-117 -239.5t-199.5 -158t-288.5 -56.5 q-229 0 -377 107l-62 -82q-14 -4 -41.5 -6t-62.5 -2t-68 2t-55 6zM485 731q0 -98 13 -174l413 557q-63 63 -159 64q-267 -1 -267 -447zM578 358q63 -70 172 -69q262 0 262 442q0 102 -17 191z" />
<glyph unicode="&#xd9;" horiz-adv-x="1355" d="M115 631v837q59 8 102 11.5t82 3.5q35 0 77 -3t101 -12v-794q0 -102 8.5 -174t30 -117t60 -64.5t102.5 -19.5q63 0 103 19.5t61.5 64.5t29 116.5t7.5 174.5v794q61 8 103 11.5t77 3.5q37 0 80 -3t102 -12v-837q0 -152 -25.5 -272.5t-89 -205.5t-173 -130.5t-275.5 -45.5 t-275.5 45.5t-173 130.5t-89 205.5t-25.5 272.5zM256 1851q37 6 87 9t103 3q109 0 188 -12l220 -252q-35 -8 -73 -10t-77 -2q-88 0 -149 12z" />
<glyph unicode="&#xda;" horiz-adv-x="1355" d="M115 631v837q59 8 102 11.5t82 3.5q35 0 77 -3t101 -12v-794q0 -102 8.5 -174t30 -117t60 -64.5t102.5 -19.5q63 0 103 19.5t61.5 64.5t29 116.5t7.5 174.5v794q61 8 103 11.5t77 3.5q37 0 80 -3t102 -12v-837q0 -152 -25.5 -272.5t-89 -205.5t-173 -130.5t-275.5 -45.5 t-275.5 45.5t-173 130.5t-89 205.5t-25.5 272.5zM552 1599q35 -8 73 -10t77 -2q88 0 149 12l299 252q-37 6 -87 9t-103 3q-109 0 -188 -12z" />
<glyph unicode="&#xdb;" horiz-adv-x="1355" d="M115 631v837q59 8 102 11.5t82 3.5q35 0 77 -3t101 -12v-794q0 -102 8.5 -174t30 -117t60 -64.5t102.5 -19.5q63 0 103 19.5t61.5 64.5t29 116.5t7.5 174.5v794q61 8 103 11.5t77 3.5q37 0 80 -3t102 -12v-837q0 -152 -25.5 -272.5t-89 -205.5t-173 -130.5t-275.5 -45.5 t-275.5 45.5t-173 130.5t-89 205.5t-25.5 272.5zM272 1599l260 252q33 6 76 8t70 2t69.5 -2t75.5 -8l260 -252q-27 -8 -68 -11t-81 -3q-39 0 -78 2t-78 12l-100 98l-101 -98q-39 -10 -78 -12t-77 -2q-41 0 -82 3t-68 11z" />
<glyph unicode="&#xdc;" horiz-adv-x="1355" d="M115 631v837q59 8 102 11.5t82 3.5q35 0 77 -3t101 -12v-794q0 -102 8.5 -174t30 -117t60 -64.5t102.5 -19.5q63 0 103 19.5t61.5 64.5t29 116.5t7.5 174.5v794q61 8 103 11.5t77 3.5q37 0 80 -3t102 -12v-837q0 -152 -25.5 -272.5t-89 -205.5t-173 -130.5t-275.5 -45.5 t-275.5 45.5t-173 130.5t-89 205.5t-25.5 272.5zM292 1722q0 61 13 123q31 6 71.5 9t69.5 3t70 -3t73 -9q12 -61 13 -123q0 -61 -13 -123q-33 -6 -73.5 -9t-69.5 -3t-69.5 3t-71.5 9q-13 62 -13 123zM753 1722q0 61 13 123q31 6 71.5 9t69.5 3t69.5 -3t73.5 -9 q12 -61 13 -123q0 -61 -13 -123q-33 -6 -73.5 -9t-69.5 -3t-70 3t-71 9q-13 62 -13 123z" />
<glyph unicode="&#xdd;" horiz-adv-x="1273" d="M0 1468q35 6 94.5 11.5t112.5 5.5q43 0 95 -5t91 -12l252 -569l242 569q47 8 98 12.5t105 4.5q35 0 90 -5t94 -12l-457 -940v-522q-109 -18 -180 -18q-76 0 -182 18v522q-53 111 -111.5 231t-117 239.5t-116 239.5t-110.5 230zM520 1599q35 -8 73 -10t77 -2q88 0 149 12 l299 252q-37 6 -87 9t-103 3q-109 0 -188 -12z" />
<glyph unicode="&#xde;" horiz-adv-x="1202" d="M123 6v1460q106 18 180 19q70 0 178 -19v-204h58q100 0 205.5 -18.5t192.5 -74t142.5 -156t55.5 -263.5q0 -145 -45.5 -241.5t-120 -156t-171 -84t-198.5 -24.5q-29 0 -65.5 3t-53.5 7v-248q-109 -18 -178 -18q-74 0 -180 18zM481 551q10 -4 33 -6t49 -2q88 0 143.5 49 t55.5 153q0 61 -17.5 102.5t-48 66t-71.5 34.5t-86 10h-26.5t-31.5 -2v-405z" />
<glyph unicode="&#xdf;" horiz-adv-x="1925" d="M49 39q10 139 76 283q66 -31 137.5 -46.5t143.5 -15.5q25 0 51 2t46.5 9.5t34 19.5t13.5 33q0 27 -26.5 40t-61.5 23l-139 39q-109 31 -180.5 104.5t-71.5 200.5q0 80 32.5 145.5t92 111.5t140.5 70.5t179 24.5q78 0 170 -16t182 -47q-4 -66 -26.5 -140.5t-50.5 -131.5 q-55 23 -133 41t-144 18q-96 0 -96 -53q0 -23 22.5 -35t51.5 -21l133 -34q61 -16 111 -40t86 -61t56.5 -90t20.5 -129q0 -78 -31.5 -145.5t-94 -116.5t-154 -78t-209.5 -29q-98 0 -182.5 14.5t-178.5 49.5zM1012 39q10 139 76 283q66 -31 137.5 -46.5t143.5 -15.5q25 0 51 2 t46.5 9.5t34 19.5t13.5 33q0 27 -26.5 40t-61.5 23l-139 39q-109 31 -180.5 104.5t-71.5 200.5q0 80 32.5 145.5t92 111.5t140.5 70.5t179 24.5q78 0 170 -16t182 -47q-4 -66 -26.5 -140.5t-50.5 -131.5q-55 23 -133 41t-144 18q-96 0 -96 -53q0 -23 22.5 -35t51.5 -21 l133 -34q61 -16 111 -40t86 -61t56.5 -90t20.5 -129q0 -78 -31.5 -145.5t-94 -116.5t-154 -78t-209.5 -29q-98 0 -182.5 14.5t-178.5 49.5z" />
<glyph unicode="&#xe0;" horiz-adv-x="1071" d="M61 346q0 100 43 166t111 104.5t149.5 54t159.5 15.5h125q-2 37 -20.5 61.5t-47 38t-63.5 18.5t-72 5q-49 0 -114.5 -11.5t-134.5 -35.5q-18 35 -31.5 63.5t-21 58t-10.5 61.5t-3 73q98 33 195.5 49t175.5 16q106 0 192 -25.5t146.5 -78.5t93.5 -136t33 -198v-600 q-78 -23 -188.5 -45.5t-233.5 -22.5q-106 0 -195.5 19.5t-153 62.5t-99.5 114t-36 173zM156 1452q37 6 87 9t103 3q109 0 188 -12l220 -252q-35 -8 -73 -10t-77 -2q-88 0 -149 12zM362 352q0 -41 18.5 -64.5t46.5 -35.5t59.5 -16.5t58.5 -4.5q18 0 53 4.5t51 8.5v225h-117 q-72 0 -121 -30.5t-49 -86.5z" />
<glyph unicode="&#xe1;" horiz-adv-x="1071" d="M61 346q0 100 43 166t111 104.5t149.5 54t159.5 15.5h125q-2 37 -20.5 61.5t-47 38t-63.5 18.5t-72 5q-49 0 -114.5 -11.5t-134.5 -35.5q-18 35 -31.5 63.5t-21 58t-10.5 61.5t-3 73q98 33 195.5 49t175.5 16q106 0 192 -25.5t146.5 -78.5t93.5 -136t33 -198v-600 q-78 -23 -188.5 -45.5t-233.5 -22.5q-106 0 -195.5 19.5t-153 62.5t-99.5 114t-36 173zM362 352q0 -41 18.5 -64.5t46.5 -35.5t59.5 -16.5t58.5 -4.5q18 0 53 4.5t51 8.5v225h-117q-72 0 -121 -30.5t-49 -86.5zM366 1200q35 -8 73 -10t77 -2q88 0 149 12l299 252 q-37 6 -87 9t-103 3q-109 0 -188 -12z" />
<glyph unicode="&#xe2;" horiz-adv-x="1071" d="M61 346q0 100 43 166t111 104.5t149.5 54t159.5 15.5h125q-2 37 -20.5 61.5t-47 38t-63.5 18.5t-72 5q-49 0 -114.5 -11.5t-134.5 -35.5q-18 35 -31.5 63.5t-21 58t-10.5 61.5t-3 73q98 33 195.5 49t175.5 16q106 0 192 -25.5t146.5 -78.5t93.5 -136t33 -198v-600 q-78 -23 -188.5 -45.5t-233.5 -22.5q-106 0 -195.5 19.5t-153 62.5t-99.5 114t-36 173zM113 1200l260 252q33 6 76 8t70 2t69.5 -2t75.5 -8l260 -252q-27 -8 -68 -11t-81 -3q-39 0 -78 2t-78 12l-100 98l-101 -98q-39 -10 -78 -12t-77 -2q-41 0 -82 3t-68 11zM362 352 q0 -41 18.5 -64.5t46.5 -35.5t59.5 -16.5t58.5 -4.5q18 0 53 4.5t51 8.5v225h-117q-72 0 -121 -30.5t-49 -86.5z" />
<glyph unicode="&#xe3;" horiz-adv-x="1071" d="M61 346q0 100 43 166t111 104.5t149.5 54t159.5 15.5h125q-2 37 -20.5 61.5t-47 38t-63.5 18.5t-72 5q-49 0 -114.5 -11.5t-134.5 -35.5q-18 35 -31.5 63.5t-21 58t-10.5 61.5t-3 73q98 33 195.5 49t175.5 16q106 0 192 -25.5t146.5 -78.5t93.5 -136t33 -198v-600 q-78 -23 -188.5 -45.5t-233.5 -22.5q-106 0 -195.5 19.5t-153 62.5t-99.5 114t-36 173zM133 1382q39 45 99.5 78t138.5 33q41 0 77 -11.5t74 -25.5q35 -14 73 -25.5t79 -11.5t72.5 11.5t74.5 52.5q33 -35 56.5 -82t38.5 -96q-37 -47 -98.5 -79t-133.5 -32q-45 0 -86 12.5 t-78 24.5q-39 14 -74.5 25.5t-72.5 11.5q-41 0 -75 -12.5t-70 -51.5q-33 35 -57 82t-38 96zM362 352q0 -41 18.5 -64.5t46.5 -35.5t59.5 -16.5t58.5 -4.5q18 0 53 4.5t51 8.5v225h-117q-72 0 -121 -30.5t-49 -86.5z" />
<glyph unicode="&#xe4;" horiz-adv-x="1071" d="M61 346q0 100 43 166t111 104.5t149.5 54t159.5 15.5h125q-2 37 -20.5 61.5t-47 38t-63.5 18.5t-72 5q-49 0 -114.5 -11.5t-134.5 -35.5q-18 35 -31.5 63.5t-21 58t-10.5 61.5t-3 73q98 33 195.5 49t175.5 16q106 0 192 -25.5t146.5 -78.5t93.5 -136t33 -198v-600 q-78 -23 -188.5 -45.5t-233.5 -22.5q-106 0 -195.5 19.5t-153 62.5t-99.5 114t-36 173zM149 1323q0 61 13 123q31 6 71.5 9t69.5 3t70 -3t73 -9q12 -61 13 -123q0 -61 -13 -123q-33 -6 -73.5 -9t-69.5 -3t-69.5 3t-71.5 9q-13 62 -13 123zM362 352q0 -41 18.5 -64.5 t46.5 -35.5t59.5 -16.5t58.5 -4.5q18 0 53 4.5t51 8.5v225h-117q-72 0 -121 -30.5t-49 -86.5zM610 1323q0 61 13 123q31 6 71.5 9t69.5 3t69.5 -3t73.5 -9q12 -61 13 -123q0 -61 -13 -123q-33 -6 -73.5 -9t-69.5 -3t-70 3t-71 9q-13 62 -13 123z" />
<glyph unicode="&#xe5;" horiz-adv-x="1071" d="M61 346q0 100 43 166t111 104.5t149.5 54t159.5 15.5h125q-2 37 -20.5 61.5t-47 38t-63.5 18.5t-72 5q-49 0 -114.5 -11.5t-134.5 -35.5q-18 35 -31.5 63.5t-21 58t-10.5 61.5t-3 73q98 33 195.5 49t175.5 16q106 0 192 -25.5t146.5 -78.5t93.5 -136t33 -198v-600 q-78 -23 -188.5 -45.5t-233.5 -22.5q-106 0 -195.5 19.5t-153 62.5t-99.5 114t-36 173zM299 1403q0 111 73.5 172t182.5 61t182.5 -61.5t73.5 -171.5q0 -111 -74 -172.5t-182 -61.5q-109 0 -182.5 61.5t-73.5 172.5zM362 352q0 -41 18.5 -64.5t46.5 -35.5t59.5 -16.5 t58.5 -4.5q18 0 53 4.5t51 8.5v225h-117q-72 0 -121 -30.5t-49 -86.5zM452 1403q0 -45 29 -74t74 -29q43 0 72.5 29t29.5 74q0 43 -29.5 72.5t-72.5 29.5q-45 0 -74 -28.5t-29 -73.5z" />
<glyph unicode="&#xe6;" horiz-adv-x="1660" d="M61 342q0 100 43 164.5t111 102.5t149.5 52.5t159.5 14.5h125q0 41 -17.5 67.5t-47 41t-65.5 19.5t-73 5q-49 0 -114.5 -11.5t-134.5 -35.5q-18 35 -31.5 63.5t-21 58t-10.5 61.5t-3 73q98 33 195.5 49t175.5 16q102 0 185 -23.5t142 -72.5q61 45 140.5 70.5t177.5 25.5 q109 0 193.5 -36.5t144 -101t91.5 -156t32 -197.5q0 -55 -4.5 -89t-8.5 -63h-628q16 -96 78.5 -135t152.5 -39q59 0 133 14.5t146 43.5q29 -53 50 -127t23 -154q-182 -68 -372 -68q-121 0 -195 22.5t-123 47.5q-53 -29 -136 -48.5t-194 -19.5q-102 0 -187 18.5t-148.5 61.5 t-98.5 113t-35 172zM362 348q0 -41 18.5 -63.5t46.5 -34.5t59.5 -15.5t58.5 -3.5q45 0 80 8.5t47 14.5q-23 53 -34 102.5t-13 102.5h-93q-72 0 -121 -28t-49 -83zM967 662h327q-8 72 -45.5 116.5t-113.5 44.5q-66 0 -111 -39t-57 -122z" />
<glyph unicode="&#xe7;" horiz-adv-x="964" d="M63 528q0 123 35 225.5t102.5 175t166 113.5t225.5 41q43 0 82 -2t76.5 -8t77.5 -18.5t90 -30.5q4 -70 -12.5 -138.5t-51.5 -133.5q-35 12 -62.5 19t-52 11t-48 5t-50.5 1q-98 0 -162.5 -58t-64.5 -202q0 -76 19.5 -126t51 -78.5t73.5 -41t89 -12.5q59 0 103.5 10.5 t103.5 32.5q35 -55 55.5 -123.5t20.5 -156.5q-94 -37 -172 -47.5t-156 -10.5q-131 0 -231.5 39t-169 112t-103.5 174t-35 228zM243 -467q0 23 10.5 64t32.5 73q39 -12 71 -17t71 -5q53 0 73.5 18.5t20.5 42.5q0 25 -20.5 40t-61.5 15q-20 0 -45 -3t-76 -19l-41 41l172 270 h172l-100 -155q113 -4 176.5 -52.5t63.5 -126.5q0 -106 -89.5 -160.5t-240.5 -54.5q-47 0 -97.5 6.5t-91.5 22.5z" />
<glyph unicode="&#xe8;" horiz-adv-x="1101" d="M63 522q0 117 33 219.5t98.5 178t164 119.5t229.5 44q109 0 193.5 -36.5t144 -101t91.5 -156t32 -197.5q0 -55 -5.5 -99t-9.5 -73h-622q23 -84 79 -119t148 -35q59 0 133 14.5t146 43.5q29 -53 50 -127t23 -154q-182 -68 -373 -68q-147 0 -252.5 41t-172 114t-98.5 173 t-32 219zM191 1452q37 6 87 9t103 3q109 0 188 -12l220 -252q-35 -8 -73 -10t-77 -2q-88 0 -149 12zM408 655h327q-4 72 -44 120t-116 48q-66 0 -112.5 -41t-54.5 -127z" />
<glyph unicode="&#xe9;" horiz-adv-x="1101" d="M63 522q0 117 33 219.5t98.5 178t164 119.5t229.5 44q109 0 193.5 -36.5t144 -101t91.5 -156t32 -197.5q0 -55 -5.5 -99t-9.5 -73h-622q23 -84 79 -119t148 -35q59 0 133 14.5t146 43.5q29 -53 50 -127t23 -154q-182 -68 -373 -68q-147 0 -252.5 41t-172 114t-98.5 173 t-32 219zM408 655h327q-4 72 -44 120t-116 48q-66 0 -112.5 -41t-54.5 -127zM438 1200q35 -8 73 -10t77 -2q88 0 149 12l299 252q-37 6 -87 9t-103 3q-109 0 -188 -12z" />
<glyph unicode="&#xea;" horiz-adv-x="1101" d="M63 522q0 117 33 219.5t98.5 178t164 119.5t229.5 44q109 0 193.5 -36.5t144 -101t91.5 -156t32 -197.5q0 -55 -5.5 -99t-9.5 -73h-622q23 -84 79 -119t148 -35q59 0 133 14.5t146 43.5q29 -53 50 -127t23 -154q-182 -68 -373 -68q-147 0 -252.5 41t-172 114t-98.5 173 t-32 219zM180 1200l260 252q33 6 76 8t70 2t69.5 -2t75.5 -8l260 -252q-27 -8 -68 -11t-81 -3q-39 0 -78 2t-78 12l-100 98l-101 -98q-39 -10 -78 -12t-77 -2q-41 0 -82 3t-68 11zM408 655h327q-4 72 -44 120t-116 48q-66 0 -112.5 -41t-54.5 -127z" />
<glyph unicode="&#xeb;" horiz-adv-x="1101" d="M63 522q0 117 33 219.5t98.5 178t164 119.5t229.5 44q109 0 193.5 -36.5t144 -101t91.5 -156t32 -197.5q0 -55 -5.5 -99t-9.5 -73h-622q23 -84 79 -119t148 -35q59 0 133 14.5t146 43.5q29 -53 50 -127t23 -154q-182 -68 -373 -68q-147 0 -252.5 41t-172 114t-98.5 173 t-32 219zM204 1323q0 61 13 123q31 6 71.5 9t69.5 3t70 -3t73 -9q12 -61 13 -123q0 -61 -13 -123q-33 -6 -73.5 -9t-69.5 -3t-69.5 3t-71.5 9q-13 62 -13 123zM408 655h327q-4 72 -44 120t-116 48q-66 0 -112.5 -41t-54.5 -127zM665 1323q0 61 13 123q31 6 71.5 9t69.5 3 t69.5 -3t73.5 -9q12 -61 13 -123q0 -61 -13 -123q-33 -6 -73.5 -9t-69.5 -3t-70 3t-71 9q-13 62 -13 123z" />
<glyph unicode="&#xec;" horiz-adv-x="583" d="M-102 1452q37 6 87 9t103 3q109 0 188 -12l220 -252q-35 -8 -73 -10t-77 -2q-88 0 -149 12zM119 2v1057q45 10 89 14t85 4q39 0 84 -4t88 -14v-1057q-53 -8 -96 -12t-78 -4t-78 4t-94 12z" />
<glyph unicode="&#xed;" horiz-adv-x="583" d="M119 2v1057q45 10 89 14t85 4q39 0 84 -4t88 -14v-1057q-53 -8 -96 -12t-78 -4t-78 4t-94 12zM151 1200q35 -8 73 -10t77 -2q88 0 149 12l299 252q-37 6 -87 9t-103 3q-109 0 -188 -12z" />
<glyph unicode="&#xee;" horiz-adv-x="583" d="M-113 1200l260 252q33 6 76 8t70 2t69.5 -2t75.5 -8l260 -252q-27 -8 -68 -11t-81 -3q-39 0 -78 2t-78 12l-100 98l-101 -98q-39 -10 -78 -12t-77 -2q-41 0 -82 3t-68 11zM119 2v1057q45 10 89 14t85 4q39 0 84 -4t88 -14v-1057q-53 -8 -96 -12t-78 -4t-78 4t-94 12z" />
<glyph unicode="&#xef;" horiz-adv-x="583" d="M-93 1323q0 61 13 123q31 6 71.5 9t69.5 3t70 -3t73 -9q12 -61 13 -123q0 -61 -13 -123q-33 -6 -73.5 -9t-69.5 -3t-69.5 3t-71.5 9q-13 62 -13 123zM119 2v1057q45 10 89 14t85 4q39 0 84 -4t88 -14v-1057q-53 -8 -96 -12t-78 -4t-78 4t-94 12zM368 1323q0 61 13 123 q31 6 71.5 9t69.5 3t69.5 -3t73.5 -9q12 -61 13 -123q0 -61 -13 -123q-33 -6 -73.5 -9t-69.5 -3t-70 3t-71 9q-13 62 -13 123z" />
<glyph unicode="&#xf0;" horiz-adv-x="1163" d="M6 545q0 16 2 42.5t12 51.5h95v416q86 10 182 19t180 9q166 0 284 -38.5t193.5 -109.5t110.5 -171t35 -223q0 -129 -36 -233.5t-113 -178.5t-198.5 -114t-293.5 -40q-100 0 -179 7.5t-165 19.5v447h-95q-10 25 -12 51t-2 45zM461 268q8 0 21.5 -2t39.5 -2 q115 0 171.5 64.5t56.5 212.5q0 131 -55.5 191.5t-157.5 60.5q-25 0 -45.5 -2.5t-30.5 -4.5v-147h125q10 -25 12 -51.5t2 -42.5q0 -18 -2 -45t-12 -51h-125v-181z" />
<glyph unicode="&#xf1;" horiz-adv-x="1157" d="M115 2v1006q72 25 174 48t256 23q90 0 180 -15t163 -64.5t119 -141.5t46 -244v-612q-53 -10 -96.5 -13t-75.5 -3q-35 0 -78 3t-96 13v576q0 109 -41 155.5t-125 46.5q-23 0 -48.5 -4t-31.5 -8v-766q-53 -10 -96 -13t-76 -3q-35 0 -78 3t-96 13zM182 1382q39 45 99.5 78 t138.5 33q41 0 77 -11.5t74 -25.5q35 -14 73 -25.5t79 -11.5t72.5 11.5t74.5 52.5q33 -35 56.5 -82t38.5 -96q-37 -47 -98.5 -79t-133.5 -32q-45 0 -86 12.5t-78 24.5q-39 14 -74.5 25.5t-72.5 11.5q-41 0 -75 -12.5t-70 -51.5q-33 35 -57 82t-38 96z" />
<glyph unicode="&#xf2;" horiz-adv-x="1181" d="M63 524q0 125 34 228.5t100.5 177.5t165 113.5t227.5 39.5q131 0 229.5 -39.5t165 -113.5t100 -177.5t33.5 -228.5q0 -123 -33.5 -224t-100 -174t-165 -112t-229.5 -39q-129 0 -227.5 39t-165 112t-100.5 174t-34 224zM209 1452q37 6 87 9t103 3q109 0 188 -12l220 -252 q-35 -8 -73 -10t-77 -2q-88 0 -149 12zM414 524q0 -129 43 -198.5t133 -69.5t134 69.5t44 198.5q0 131 -44 201t-134 70t-133 -70t-43 -201z" />
<glyph unicode="&#xf3;" horiz-adv-x="1181" d="M63 524q0 125 34 228.5t100.5 177.5t165 113.5t227.5 39.5q131 0 229.5 -39.5t165 -113.5t100 -177.5t33.5 -228.5q0 -123 -33.5 -224t-100 -174t-165 -112t-229.5 -39q-129 0 -227.5 39t-165 112t-100.5 174t-34 224zM414 524q0 -129 43 -198.5t133 -69.5t134 69.5 t44 198.5q0 131 -44 201t-134 70t-133 -70t-43 -201zM438 1200q35 -8 73 -10t77 -2q88 0 149 12l299 252q-37 6 -87 9t-103 3q-109 0 -188 -12z" />
<glyph unicode="&#xf4;" horiz-adv-x="1181" d="M63 524q0 125 34 228.5t100.5 177.5t165 113.5t227.5 39.5q131 0 229.5 -39.5t165 -113.5t100 -177.5t33.5 -228.5q0 -123 -33.5 -224t-100 -174t-165 -112t-229.5 -39q-129 0 -227.5 39t-165 112t-100.5 174t-34 224zM184 1200l260 252q33 6 76 8t70 2t69.5 -2t75.5 -8 l260 -252q-27 -8 -68 -11t-81 -3q-39 0 -78 2t-78 12l-100 98l-101 -98q-39 -10 -78 -12t-77 -2q-41 0 -82 3t-68 11zM414 524q0 -129 43 -198.5t133 -69.5t134 69.5t44 198.5q0 131 -44 201t-134 70t-133 -70t-43 -201z" />
<glyph unicode="&#xf5;" horiz-adv-x="1181" d="M63 524q0 125 34 228.5t100.5 177.5t165 113.5t227.5 39.5q131 0 229.5 -39.5t165 -113.5t100 -177.5t33.5 -228.5q0 -123 -33.5 -224t-100 -174t-165 -112t-229.5 -39q-129 0 -227.5 39t-165 112t-100.5 174t-34 224zM198 1382q39 45 99.5 78t138.5 33q41 0 77 -11.5 t74 -25.5q35 -14 73 -25.5t79 -11.5t72.5 11.5t74.5 52.5q33 -35 56.5 -82t38.5 -96q-37 -47 -98.5 -79t-133.5 -32q-45 0 -86 12.5t-78 24.5q-39 14 -74.5 25.5t-72.5 11.5q-41 0 -75 -12.5t-70 -51.5q-33 35 -57 82t-38 96zM414 524q0 -129 43 -198.5t133 -69.5t134 69.5 t44 198.5q0 131 -44 201t-134 70t-133 -70t-43 -201z" />
<glyph unicode="&#xf6;" horiz-adv-x="1181" d="M63 524q0 125 34 228.5t100.5 177.5t165 113.5t227.5 39.5q131 0 229.5 -39.5t165 -113.5t100 -177.5t33.5 -228.5q0 -123 -33.5 -224t-100 -174t-165 -112t-229.5 -39q-129 0 -227.5 39t-165 112t-100.5 174t-34 224zM204 1323q0 61 13 123q31 6 71.5 9t69.5 3t70 -3 t73 -9q12 -61 13 -123q0 -61 -13 -123q-33 -6 -73.5 -9t-69.5 -3t-69.5 3t-71.5 9q-13 62 -13 123zM414 524q0 -129 43 -198.5t133 -69.5t134 69.5t44 198.5q0 131 -44 201t-134 70t-133 -70t-43 -201zM665 1323q0 61 13 123q31 6 71.5 9t69.5 3t69.5 -3t73.5 -9 q12 -61 13 -123q0 -61 -13 -123q-33 -6 -73.5 -9t-69.5 -3t-70 3t-71 9q-13 62 -13 123z" />
<glyph unicode="&#xf7;" d="M131 752q0 35 4 70.5t10 76.5h893q8 -41 12.5 -76t4.5 -69q0 -35 -4 -71t-13 -77h-893q-6 41 -10 75t-4 71zM406 1169q0 78 55 133.5t133 55.5t133 -55.5t55 -133.5t-55 -133t-133 -55t-133 55t-55 133zM408 336q0 78 55 133t133 55t133 -55t55 -133t-55 -133.5 t-133 -55.5t-133 55.5t-55 133.5z" />
<glyph unicode="&#xf8;" horiz-adv-x="1181" d="M61 0l117 145q-117 141 -117 379q0 125 34 228.5t100.5 177.5t165 113.5t227.5 39.5q88 0 160.5 -18t132.5 -53l39 47q33 6 102 6q35 0 60.5 -2t35.5 -4l-121 -150q119 -147 119 -385q0 -123 -33.5 -224t-100.5 -174t-165 -112t-229 -39q-170 0 -291 70l-37 -45 q-35 -6 -102 -6q-35 0 -60.5 2t-36.5 4zM403 524q0 -51 7 -94l280 346q-45 33 -102 33q-94 0 -139.5 -74t-45.5 -211zM483 274q39 -33 105 -32q94 0 140 73.5t46 208.5q0 59 -8 101z" />
<glyph unicode="&#xf9;" horiz-adv-x="1157" d="M104 461v598q45 10 89.5 14t85.5 4q39 0 84 -4t88 -14v-570q0 -123 40.5 -168t124.5 -45q35 0 53.5 2.5t26.5 4.5v776q45 10 89 14t85 4q39 0 84 -4t88 -14v-1010q-35 -12 -83 -24.5t-102 -23.5t-111.5 -17.5t-112.5 -6.5q-104 0 -200.5 16.5t-169.5 67t-116 145.5 t-43 255zM181 1452q37 6 87 9t103 3q109 0 188 -12l220 -252q-35 -8 -73 -10t-77 -2q-88 0 -149 12z" />
<glyph unicode="&#xfa;" horiz-adv-x="1157" d="M104 461v598q45 10 89.5 14t85.5 4q39 0 84 -4t88 -14v-570q0 -123 40.5 -168t124.5 -45q35 0 53.5 2.5t26.5 4.5v776q45 10 89 14t85 4q39 0 84 -4t88 -14v-1010q-35 -12 -83 -24.5t-102 -23.5t-111.5 -17.5t-112.5 -6.5q-104 0 -200.5 16.5t-169.5 67t-116 145.5 t-43 255zM423 1200q35 -8 73 -10t77 -2q88 0 149 12l299 252q-37 6 -87 9t-103 3q-109 0 -188 -12z" />
<glyph unicode="&#xfb;" horiz-adv-x="1157" d="M104 461v598q45 10 89.5 14t85.5 4q39 0 84 -4t88 -14v-570q0 -123 40.5 -168t124.5 -45q35 0 53.5 2.5t26.5 4.5v776q45 10 89 14t85 4q39 0 84 -4t88 -14v-1010q-35 -12 -83 -24.5t-102 -23.5t-111.5 -17.5t-112.5 -6.5q-104 0 -200.5 16.5t-169.5 67t-116 145.5 t-43 255zM168 1200l260 252q33 6 76 8t70 2t69.5 -2t75.5 -8l260 -252q-27 -8 -68 -11t-81 -3q-39 0 -78 2t-78 12l-100 98l-101 -98q-39 -10 -78 -12t-77 -2q-41 0 -82 3t-68 11z" />
<glyph unicode="&#xfc;" horiz-adv-x="1157" d="M104 461v598q45 10 89.5 14t85.5 4q39 0 84 -4t88 -14v-570q0 -123 40.5 -168t124.5 -45q35 0 53.5 2.5t26.5 4.5v776q45 10 89 14t85 4q39 0 84 -4t88 -14v-1010q-35 -12 -83 -24.5t-102 -23.5t-111.5 -17.5t-112.5 -6.5q-104 0 -200.5 16.5t-169.5 67t-116 145.5 t-43 255zM188 1323q0 61 13 123q31 6 71.5 9t69.5 3t70 -3t73 -9q12 -61 13 -123q0 -61 -13 -123q-33 -6 -73.5 -9t-69.5 -3t-69.5 3t-71.5 9q-13 62 -13 123zM649 1323q0 61 13 123q31 6 71.5 9t69.5 3t69.5 -3t73.5 -9q12 -61 13 -123q0 -61 -13 -123q-33 -6 -73.5 -9 t-69.5 -3t-70 3t-71 9q-13 62 -13 123z" />
<glyph unicode="&#xfd;" horiz-adv-x="1155" d="M10 1059q23 4 79 8t124 4q53 0 104.5 -4t67.5 -8l201 -404l200 404q16 4 62.5 8t99.5 4q68 0 121 -4t76 -8l-395 -686v-371q-53 -8 -96.5 -12t-78.5 -4t-77.5 4t-94.5 12v371zM425 1200q35 -8 73 -10t77 -2q88 0 149 12l299 252q-37 6 -87 9t-103 3q-109 0 -188 -12z" />
<glyph unicode="&#xfe;" horiz-adv-x="1056" d="M115 2v1204q53 10 93 13.5t75 3.5q33 0 74.5 -3t95.5 -14v-164h47q94 0 184 -17t162 -63.5t116 -127t44 -209.5q0 -117 -40 -197t-105.5 -129t-148.5 -70.5t-169 -21.5q-35 0 -59.5 2t-30.5 4v-211q-53 -10 -95.5 -13t-74.5 -3q-35 0 -75 3t-93 13zM453 471 q10 -2 25.5 -3t25.5 -1q72 0 118 36t46 122q0 74 -46.5 113.5t-113.5 39.5h-23.5t-31.5 -2v-305z" />
<glyph unicode="&#xff;" horiz-adv-x="1155" d="M10 1059q23 4 79 8t124 4q53 0 104.5 -4t67.5 -8l201 -404l200 404q16 4 62.5 8t99.5 4q68 0 121 -4t76 -8l-395 -686v-371q-53 -8 -96.5 -12t-78.5 -4t-77.5 4t-94.5 12v371zM192 1323q0 61 13 123q31 6 71.5 9t69.5 3t70 -3t73 -9q12 -61 13 -123q0 -61 -13 -123 q-33 -6 -73.5 -9t-69.5 -3t-69.5 3t-71.5 9q-13 62 -13 123zM653 1323q0 61 13 123q31 6 71.5 9t69.5 3t69.5 -3t73.5 -9q12 -61 13 -123q0 -61 -13 -123q-33 -6 -73.5 -9t-69.5 -3t-70 3t-71 9q-13 62 -13 123z" />
<glyph unicode="&#x152;" horiz-adv-x="1865" d="M84 733q0 164 42 303.5t125 241.5t208 160.5t291 58.5q53 0 115.5 -5t115.5 -19h793q18 -86 18 -158q0 -35 -4 -76t-14 -84h-506v-225h401q10 -47 13.5 -86t3.5 -74t-3.5 -75t-13.5 -87h-401v-291h520q8 -43 12 -81.5t4 -73.5t-4 -77t-12 -85h-799q-53 -12 -122.5 -18.5 t-116.5 -6.5q-166 0 -291 57.5t-208 159t-125 239.5t-42 302zM465 733q0 -223 74.5 -337.5t210.5 -114.5q55 0 92 4t67 14v870q-29 8 -66.5 12.5t-90.5 4.5q-135 0 -211 -116t-76 -337z" />
<glyph unicode="&#x153;" horiz-adv-x="1794" d="M63 524q0 125 34 228.5t100.5 177.5t165 113.5t227.5 39.5q113 0 206 -47t144 -118q20 31 52 60.5t75 53t98.5 37.5t124.5 14q209 0 330 -130t121 -361q0 -55 -5 -99t-10 -73h-622q23 -84 79 -119t148 -35q59 0 133 14.5t146 43.5q29 -53 50 -127t23 -154 q-182 -68 -372 -68q-125 0 -225.5 47.5t-151.5 114.5q-55 -72 -145.5 -117t-213.5 -45t-218 39t-160.5 112t-99.5 174t-34 224zM414 524q0 -129 43 -198.5t133 -69.5t134 69.5t44 198.5q0 131 -44 201t-134 70t-133 -70t-43 -201zM1100 655h327q-4 74 -43.5 121t-115.5 47 q-66 0 -112 -41t-56 -127z" />
<glyph unicode="&#x178;" horiz-adv-x="1273" d="M0 1468q35 6 94.5 11.5t112.5 5.5q43 0 95 -5t91 -12l252 -569l242 569q47 8 98 12.5t105 4.5q35 0 90 -5t94 -12l-457 -940v-522q-109 -18 -180 -18q-76 0 -182 18v522q-53 111 -111.5 231t-117 239.5t-116 239.5t-110.5 230zM251 1722q0 61 13 123q31 6 71.5 9t69.5 3 t70 -3t73 -9q12 -61 13 -123q0 -61 -13 -123q-33 -6 -73.5 -9t-69.5 -3t-69.5 3t-71.5 9q-13 62 -13 123zM712 1722q0 61 13 123q31 6 71.5 9t69.5 3t69.5 -3t73.5 -9q12 -61 13 -123q0 -61 -13 -123q-33 -6 -73.5 -9t-69.5 -3t-70 3t-71 9q-13 62 -13 123z" />
<glyph unicode="&#x2c6;" horiz-adv-x="983" d="M86 1200l260 252q33 6 76 8t70 2t69.5 -2t75.5 -8l260 -252q-27 -8 -68 -11t-81 -3q-39 0 -78 2t-78 12l-100 98l-101 -98q-39 -10 -78 -12t-77 -2q-41 0 -82 3t-68 11z" />
<glyph unicode="&#x2dc;" horiz-adv-x="983" d="M100 1382q39 45 99.5 78t138.5 33q41 0 77 -11.5t74 -25.5q35 -14 73 -25.5t79 -11.5t72.5 11.5t74.5 52.5q33 -35 56.5 -82t38.5 -96q-37 -47 -98.5 -79t-133.5 -32q-45 0 -86 12.5t-78 24.5q-39 14 -74.5 25.5t-72.5 11.5q-41 0 -75 -12.5t-70 -51.5q-33 35 -57 82 t-38 96z" />
<glyph unicode="&#x2000;" horiz-adv-x="946" />
<glyph unicode="&#x2001;" horiz-adv-x="1892" />
<glyph unicode="&#x2002;" horiz-adv-x="946" />
<glyph unicode="&#x2003;" horiz-adv-x="1892" />
<glyph unicode="&#x2004;" horiz-adv-x="630" />
<glyph unicode="&#x2005;" horiz-adv-x="473" />
<glyph unicode="&#x2006;" horiz-adv-x="315" />
<glyph unicode="&#x2007;" horiz-adv-x="315" />
<glyph unicode="&#x2008;" horiz-adv-x="236" />
<glyph unicode="&#x2009;" horiz-adv-x="378" />
<glyph unicode="&#x200a;" horiz-adv-x="105" />
<glyph unicode="&#x2010;" horiz-adv-x="755" d="M86 559q0 70 18 156h549q10 -43 13.5 -81t3.5 -73t-3 -73.5t-14 -81.5h-549q-18 85 -18 153z" />
<glyph unicode="&#x2011;" horiz-adv-x="755" d="M86 559q0 70 18 156h549q10 -43 13.5 -81t3.5 -73t-3 -73.5t-14 -81.5h-549q-18 85 -18 153z" />
<glyph unicode="&#x2012;" horiz-adv-x="755" d="M86 559q0 70 18 156h549q10 -43 13.5 -81t3.5 -73t-3 -73.5t-14 -81.5h-549q-18 85 -18 153z" />
<glyph unicode="&#x2013;" horiz-adv-x="1024" d="M-12 559q0 35 4 73t12 83h1016q10 -45 13 -82t3 -72t-3 -72.5t-13 -82.5h-1016q-8 45 -12 81.5t-4 71.5z" />
<glyph unicode="&#x2014;" horiz-adv-x="2048" d="M-12 559q0 35 4 73t12 83h2040q10 -45 13 -82t3 -72t-3 -72.5t-13 -82.5h-2040q-8 45 -12 81.5t-4 71.5z" />
<glyph unicode="&#x2018;" horiz-adv-x="647" d="M82 1468q53 10 101 13.5t83 3.5q33 0 73 -3t85 -14l141 -546q-31 -6 -77 -11.5t-89 -5.5q-37 0 -76.5 3t-84.5 14z" />
<glyph unicode="&#x2019;" horiz-adv-x="647" d="M82 922l141 546q45 10 85 13.5t73 3.5q35 0 83 -3t101 -14l-155 -546q-45 -10 -85 -13.5t-77 -3.5q-43 0 -89 5t-77 12z" />
<glyph unicode="&#x201a;" horiz-adv-x="647" d="M82 -254l141 547q45 10 85 13t73 3q35 0 83 -3t101 -13l-155 -547q-45 -10 -85 -13t-77 -3q-43 0 -89 5t-77 11z" />
<glyph unicode="&#x201c;" horiz-adv-x="1118" d="M82 1468q53 10 101 13.5t83 3.5q33 0 73 -3t85 -14l141 -546q-31 -6 -77 -11.5t-89 -5.5q-37 0 -76.5 3t-84.5 14zM553 1468q53 10 101 13.5t83 3.5q33 0 73 -3t85 -14l141 -546q-31 -6 -77 -11.5t-89 -5.5q-37 0 -76.5 3t-84.5 14z" />
<glyph unicode="&#x201d;" horiz-adv-x="1116" d="M82 922l141 546q45 10 85 13.5t73 3.5q35 0 83 -3t101 -14l-155 -546q-45 -10 -85 -13.5t-77 -3.5q-43 0 -89 5t-77 12zM551 922l141 546q45 10 85 13.5t73 3.5q35 0 83 -3t101 -14l-155 -546q-45 -10 -85 -13.5t-77 -3.5q-43 0 -89 5t-77 12z" />
<glyph unicode="&#x201e;" horiz-adv-x="1116" d="M82 -254l141 547q45 10 85 13t73 3q35 0 83 -3t101 -13l-155 -547q-45 -10 -85 -13t-77 -3q-43 0 -89 5t-77 11zM551 -254l141 547q45 10 85 13t73 3q35 0 83 -3t101 -13l-155 -547q-45 -10 -85 -13t-77 -3q-43 0 -89 5t-77 11z" />
<glyph unicode="&#x2022;" horiz-adv-x="962" d="M133 752q0 72 27.5 135t75 110t111 75t134.5 28q72 0 135.5 -28t110.5 -75t74.5 -110.5t27.5 -134.5q0 -72 -27.5 -135.5t-74.5 -110.5t-110.5 -75t-135.5 -28t-135 28t-110.5 75t-75 110.5t-27.5 135.5z" />
<glyph unicode="&#x2026;" horiz-adv-x="1900" d="M113 178q0 41 4 84t12 90q47 6 90 10.5t84 4.5t84 -4.5t90 -10.5q8 -47 12.5 -90t4.5 -84t-4.5 -84t-12.5 -90q-47 -8 -90 -12t-84 -4t-84 4t-90 12q-8 47 -12 90t-4 84zM760 178q0 41 4 84t12 90q47 6 90 10.5t84 4.5t84 -4.5t90 -10.5q8 -47 12.5 -90t4.5 -84t-4.5 -84 t-12.5 -90q-47 -8 -90 -12t-84 -4t-84 4t-90 12q-8 47 -12 90t-4 84zM1407 178q0 41 4 84t12 90q47 6 90 10.5t84 4.5t84 -4.5t90 -10.5q8 -47 12.5 -90t4.5 -84t-4.5 -84t-12.5 -90q-47 -8 -90 -12t-84 -4t-84 4t-90 12q-8 47 -12 90t-4 84z" />
<glyph unicode="&#x202f;" horiz-adv-x="378" />
<glyph unicode="&#x2039;" horiz-adv-x="790" d="M61 545l320 454q31 8 77 13.5t95 5.5q98 0 195 -19l-316 -454l316 -455q-96 -18 -195 -18q-49 0 -95 5t-77 13z" />
<glyph unicode="&#x203a;" horiz-adv-x="790" d="M43 90l315 455l-315 454q94 18 195 19q49 0 95 -5t77 -14l319 -454l-319 -455q-31 -8 -77 -13t-95 -5q-100 0 -195 18z" />
<glyph unicode="&#x205f;" horiz-adv-x="473" />
<glyph unicode="&#x20ac;" horiz-adv-x="1253" d="M53 547q0 57 10 92h156q-2 18 -2 36.5v39.5v67h-154q-10 31 -10 90q0 57 10 93h179q23 113 69.5 206t120.5 160.5t174.5 104.5t231.5 37q49 0 93 -3.5t89 -11.5t92 -22.5t100 -34.5q-4 -84 -28.5 -160t-53.5 -129q-82 29 -139 40t-123 11q-106 0 -165.5 -50t-88.5 -148 h373q10 -35 10 -93q0 -59 -10 -90h-399v-67v-40t2 -36h397q10 -35 10 -92q0 -59 -10 -90h-369q29 -88 91.5 -130t173.5 -42q68 0 134 13t132 36q35 -74 54.5 -143.5t29.5 -145.5q-117 -43 -205 -56.5t-186 -13.5q-135 0 -236.5 34t-175.5 97.5t-120 152.5t-68 198h-179 q-10 31 -10 90z" />
<glyph unicode="&#x2122;" horiz-adv-x="954" d="M4 1432q0 37 6 67h332q2 -16 4 -32.5t2 -34.5q0 -16 -2 -34t-4 -32h-92v-289q-35 -6 -74 -6q-41 0 -74 6v289h-92q-6 27 -6 66zM403 1077l17 418q23 4 42 6t36 2q29 0 67 -8l78 -192l76 192q39 8 67 8q16 0 36 -2t42 -6l17 -418q-35 -6 -76 -6q-37 0 -70 6v189l-69 -154 q-27 -4 -48 0l-69 154v-189q-35 -6 -74 -6t-72 6z" />
<glyph unicode="&#x25fc;" horiz-adv-x="1075" d="M0 0v1075h1075v-1075h-1075z" />
<glyph unicode="&#xfb01;" horiz-adv-x="1519" d="M115 4v1055h782q10 -41 13 -76t3 -68t-3 -68.5t-13 -76.5h-436v-164h352q10 -41 13 -75.5t3 -67.5t-3 -69t-13 -77h-352v-313q-43 -10 -88 -13t-84 -3q-41 0 -85 3t-89 13zM1059 2v1057q45 10 89 14t85 4q39 0 84 -4t88 -14v-1057q-53 -8 -96 -12t-78 -4t-78 4t-94 12z " />
<glyph unicode="&#xfb02;" horiz-adv-x="1839" d="M115 4v1055h782q10 -41 13 -76t3 -68t-3 -68.5t-13 -76.5h-436v-164h352q10 -41 13 -75.5t3 -67.5t-3 -69t-13 -77h-352v-313q-43 -10 -88 -13t-84 -3q-41 0 -85 3t-89 13zM1059 0l2 1059q45 10 89 14t85 4q39 0 84 -4t88 -14l-2 -770h387q10 -41 13 -76t3 -68t-3 -68.5 t-13 -76.5h-733z" />
<glyph unicode="&#xfb03;" horiz-adv-x="2463" d="M115 4v1055h782q10 -41 13 -76t3 -68t-3 -68.5t-13 -76.5h-436v-164h352q10 -41 13 -75.5t3 -67.5t-3 -69t-13 -77h-352v-313q-43 -10 -88 -13t-84 -3q-41 0 -85 3t-89 13zM1059 4v1055h782q10 -41 13 -76t3 -68t-3 -68.5t-13 -76.5h-436v-164h352q10 -41 13 -75.5 t3 -67.5t-3 -69t-13 -77h-352v-313q-43 -10 -88 -13t-84 -3q-41 0 -85 3t-89 13zM2003 2v1057q45 10 89 14t85 4q39 0 84 -4t88 -14v-1057q-53 -8 -96 -12t-78 -4t-78 4t-94 12z" />
<glyph unicode="&#xfb04;" horiz-adv-x="2783" d="M115 4v1055h782q10 -41 13 -76t3 -68t-3 -68.5t-13 -76.5h-436v-164h352q10 -41 13 -75.5t3 -67.5t-3 -69t-13 -77h-352v-313q-43 -10 -88 -13t-84 -3q-41 0 -85 3t-89 13zM1061 4v1055h782q10 -41 13 -76t3 -68t-3 -68.5t-13 -76.5h-436v-164h352q10 -41 13 -75.5 t3 -67.5t-3 -69t-13 -77h-352v-313q-43 -10 -88 -13t-84 -3q-41 0 -85 3t-89 13zM2003 0l2 1059q45 10 89 14t85 4q39 0 84 -4t88 -14l-2 -770h387q10 -41 13 -76t3 -68t-3 -68.5t-13 -76.5h-733z" />
</font>
</defs>
</svg>
